Конвенция World Class 2009 / 15 Юбилейный Международный фестиваль физкультуры и спорта [2009, фитнес для инструкторов, DVD5, RUS] (Видеоурок)

Торрент Сидеров Личеров Размер
torrent_3449951.torrent
0 0 3.97 ГБ
Аватара пользователя
Stepan
Администратор
Сообщения: 52270
Зарегистрирован: 05 ноя 2011, 20:36

Конвенция World Class 2009 / 15 Юбилейный Международный фестиваль физкультуры и спорта [2009, фитнес для инструкторов, DVD5, RUS] (Видеоурок)

Сообщение Stepan » 19 сен 2016, 00:33

Конвенция World Class 2009 / 15 Юбилейный Международный фестиваль физкультуры и спорта

Страна: Россия
Тематика: фитнес для инструкторов
Тип раздаваемого материала: Видеоурок
Год выпуска: 2009

Язык: Русский
Перевод: Не требуется

Описание: 1. Д. Емельянова, М. Найман "Hard Ball 09 "
2. Н. Чадина "BOSU Training 09"
3. Сameron Shayne "Budokon Floating - Inverting"
4. Мария Камаева "Pilates Mat Integrate"
5. А. Мальшаков "Body Power"
6. О. Абрамова,Ю. Павлова "Power Lab"
7. Н. Гончарова, В. Герасименко "Пространство вариантов"
8. Светлана Фунтикова "Pilates Bend"
9. Наталья Чалова "Dance Stretch"
10. О. Личак, М. Мартынова "Power Pilates"

Качество : DVD5
Формат: DVD video
Видео кодек: MPEG2
Аудио кодек: AC3
Видео: PAL 4:3 (720x576) 9400 Кбит/сек 25,000 кадр/сек
Аудио: AC3 224 Кбит/сек 48,0 КГц 2 канала
Общее
Формат : MPEG-PS
Общий поток : 17,1 Мбит/сек

Видео
Идентификатор : 224 (0xE0)
Формат : MPEG Video
Версия формата : Version 2
Профиль формата : Main@Main
Параметр BVOP формата : Нет
Параметр матрицы формата : По умолчанию
Параметры GOP формата : M=1, N=15
Продолжительность : 8 м. 23 с.
Вид битрейта : Переменный
Битрейт : 16,5 Мбит/сек
Номинальный битрейт : 9400 Кбит/сек
Ширина : 720 пикс.
Высота : 576 пикс.
Соотношение сторон : 4:3
Частота кадров : 25,000 кадр/сек
Стандарт вещания : PAL
Цветовое пространство : YUV
Подвыборка цветности : 4:2:0
Битовая глубина : 8 бит
Тип развёртки : Чересстрочная
Порядок развёртки : Верхнее поле первое
Метод сжатия : С потерями
Бит/(Пиксели*Кадры) : 1.592
Размер потока : 990 Мбайт (97%)

Аудио
Идентификатор : 128 (0x80)
Формат : AC-3
Формат/Информация : Audio Coding 3
Расширение режима : CM (complete main)
Вид битрейта : Постоянный
Битрейт : 224 Кбит/сек
Канал(ы) : 2 канала(ов)
Расположение каналов : Front: L R
Частота : 48,0 КГц
Битовая глубина : 16 бит
Метод сжатия : С потерями
Размер потока : 13,4 Мбайт (1%)
У вас нет необходимых прав для просмотра вложений в этом сообщении.