Татьяна Кожевникова - Интим-гимнастика для женщин [2012 г., гимнастика, DVDRip, RUS] Видеоуроки

Торрент Сидеров Личеров Размер
torrent_4911344.torrent
0 0 1.1 ГБ
Аватара пользователя
Stepan
Администратор
Сообщения: 52270
Зарегистрирован: 05 ноя 2011, 20:36

Татьяна Кожевникова - Интим-гимнастика для женщин [2012 г., гимнастика, DVDRip, RUS] Видеоуроки

Сообщение Stepan » 19 сен 2016, 00:43

Татьяна Кожевникова - Интим-гимнастика для женщин

Год выпуска: 2012
Тематика: гимнастика
Продолжительность: 01:21:01
Язык: Русский

Описание: Авторская программа Татьяны Кожевниковой включает упражнения, способствующие укреплению брюшного пресса, развитию силы тазовой и мочеполовой диафрагм, стимуляции функции кишечника. Программа нацелена на развитие и совершенствование женственных форм тела и сексуальной энергии женщины, помогает сохранить уверенность в себе, радость от общения с партнёром и молодость и очарование на долгие годы. Кожевникова Татьяна - тренер по фитнес-аэробике, инструктор лечебной физкультуры, кандидат в мастера спорта по конькобежному спорту. Признана единственной в мире женщиной, поднимающей с помощью интимных мышц вес 14 кг (Рекорд Гиннеса 2003 г.).

DVD-диск "Интим-гимнастика для женщин" - Приложение к книге "Татьяна Кожевникова: Лечебно-оздоровительная программа: интим-гимнастика для женщин". Методика направлена на укрепление и подтягивание брюшного пресса, бедер, ягодиц, мышц и связок влагалища, развитие тазовой и мочеполовой диафрагм, стимулирование работы кишечника, улучшение кровообращения в органах малого таза.

Качество: DVDRip (Сэмпл)
Формат: AVI

Видео: 704x528 (1.33:1), 25 fps, XviD ~1736 kbps, 0.19 bit/pixel
Аудио: 48 kHz, AC3, 2/0 (L,R) ch, ~192 kbps

Код: Выделить всё

General
Complete name                            : Кожевникова - Интим-гимнастика (Ol).avi
Format                                   : AVI
Format/Info                              : Audio Video Interleave
File size                                : 1.10 GiB
Duration                                 : 1h 21mn
Overall bit rate                         : 1 939 Kbps
Writing application                      : VirtualDubMod 1.5.10.3
Writing library                          : VirtualDubMod build 2550/release

Video
ID                                       : 0
Format                                   : MPEG-4 Visual
Format profile                           : Advanced Simple@L5
Format settings, BVOP                    : 1
Format settings, QPel                    : No
Format settings, GMC                     : No warppoints
Format settings, Matrix                  : Custom
Codec ID                                 : XVID
Codec ID/Hint                            : XviD
Duration                                 : 1h 21mn
Bit rate                                 : 1 737 Kbps
Width                                    : 704 pixels
Height                                   : 528 pixels
Display aspect ratio                     : 4:3
Frame rate                               : 25.000 fps
Color space                              : YUV
Chroma subsampling                       : 4:2:0
Bit depth                                : 8 bits
Scan type                                : Progressive
Compression mode                         : Lossy
Bits/(Pixel*Frame)                       : 0.187
Stream size                              : 1 010 MiB (90%)
Writing library                          : XviD 73

Audio
ID                                       : 1
Format                                   : AC-3
Format/Info                              : Audio Coding 3
Mode extension                           : CM (complete main)
Format settings, Endianness              : Big
Codec ID                                 : 2000
Duration                                 : 1h 21mn
Bit rate mode                            : Constant
Bit rate                                 : 192 Kbps
Channel count                            : 2 channels
Channel positions                        : Front: L R
Sampling rate                            : 48.0 KHz
Bit depth                                : 16 bits
Compression mode                         : Lossy
Stream size                              : 112 MiB (10%)
Alignment                                : Split accross interleaves
Interleave, duration                     : 40 ms (1.00 video frame)
Interleave, preload duration             : 500 ms
Спасибо Елена1887 за возможность ознакомления!Релиз от группы
У вас нет необходимых прав для просмотра вложений в этом сообщении.