Element - Prenatal & Postnatal Yoga (Elena Brower) [2009, фитнес-йога, йога для беременных, DVDRip, ENG] (Видеоурок)

Торрент Сидеров Личеров Размер
torrent_4769894.torrent
0 0 966.24 МБ
Аватара пользователя
Stepan
Администратор
Сообщения: 52270
Зарегистрирован: 05 ноя 2011, 20:36

Element - Prenatal & Postnatal Yoga (Elena Brower) [2009, фитнес-йога, йога для беременных, DVDRip, ENG] (Видеоурок)

Сообщение Stepan » 19 сен 2016, 00:43

Element - Prenatal & Postnatal Yoga

Страна: USA
Тематика: фитнес-йога, йога для беременных
Тип раздаваемого материала: Видеоурок
Продолжительность: 01:09:07
Год выпуска: 2009

Язык: Английский
Перевод: Отсутствует

Описание:
Во время и после беременности йога является идеальным способом сформировать ваше тело, увеличить силу и приобрести гибкость. Эти две практики йоги, снятые в спокойном саду с видом на Тихий океан - замечательный способ поддерживать душевное равновесие и уменьшить стресс во время захватывающего и часто неспокойного времени, окружающего рождение ребенка. В последовательности для беременности вы будете практиковать безопасные и простые движения, предназначенные для укрепления и тонизирования тела на любом этапе беременности, обеспечивая при этом расслабление, которое поможет создать светлое пространство, в котором ваш ребенок будет расцветать. Послеродовая последовательность предназначена для перестройки вашего тела, восстановления силы, она поможет вам найти путь к себе и своему собственному здоровью.

Трейлер
http://www.youtube.com/watch?v=9RsgIZe6UJ8
Format : AVI
Format/Info : Audio Video Interleave
File size : 966 MiB
Duration : 1h 9mn
Overall bit rate : 1 954 Kbps
Writing library : MPlayer

Video
ID : 0
Format : MPEG-4 Visual
Format profile : Advanced Simple@L5
Format settings, BVOP : 2
Format settings, QPel : No
Format settings, GMC : No warppoints
Format settings, Matrix : Default (H.263)
Codec ID : XVID
Codec ID/Hint : XviD
Duration : 1h 9mn
Bit rate : 1 789 Kbps
Width : 640 pixels
Height : 480 pixels
Display aspect ratio : 4:3
Frame rate : 25.000 fps
Color space : YUV
Chroma subsampling : 4:2:0
Bit depth : 8 bits
Scan type : Progressive
Compression mode : Lossy
Bits/(Pixel*Frame) : 0.233
Stream size : 885 MiB (92%)
Writing library : XviD 1.1.2 (UTC 2006-11-01)

Audio
ID : 1
Format : MPEG Audio
Format version : Version 1
Format profile : Layer 3
Mode : Joint stereo
Mode extension : MS Stereo
Codec ID : 55
Codec ID/Hint : MP3
Duration : 1h 9mn
Bit rate mode : Constant
Bit rate : 160 Kbps
Channel(s) : 2 channels
Sampling rate : 44.1 KHz
Compression mode : Lossy
Delay relative to video : 40ms
Stream size : 79.1 MiB (8%)
Alignment : Split accross interleaves
Interleave, duration : 500 ms (12.50 video frames)
Interleave, preload duration : 500 ms
Writing library : LAME3.97
Качество: DVDRip
Формат: AVI
Видео кодек: XviD
Аудио кодек: MP3
Видео: Xvid 640x480 25fps 1789kbps 4:3
Аудио: MPEG Audio Layer 3 44100Hz stereo 160kbps
У вас нет необходимых прав для просмотра вложений в этом сообщении.