Yoga Zone: Gentle Yoga for Beginners - Charles Matki [2003 г., фитнес/йога, DVDRip, ENG] (Видеоуроки)

Торрент Сидеров Личеров Размер
torrent_3193308.torrent
0 0 356.35 МБ
Аватара пользователя
Stepan
Администратор
Сообщения: 52269
Зарегистрирован: 05 ноя 2011, 20:36

Yoga Zone: Gentle Yoga for Beginners - Charles Matki [2003 г., фитнес/йога, DVDRip, ENG] (Видеоуроки)

Сообщение Stepan » 19 сен 2016, 00:44

Charles Matki

Yoga Zone: Gentle Yoga for Beginners

Год выпуска: 2003
Страна: USA
Жанр: Fitness / Yoga
Язык: Английский
Продолжительность: 21:44+22:10
#7Описание:

Yoga Zone’s Gentle Yoga is the perfect start for those new to yoga, providing the gentle and healing benefits of yoga. These two encouraging and easy-to-follow yoga sessions are slowly paced, emphasizing simple and effective postures. These are stretches that anyone at any fitness level can do. Gentle Yoga allows you to unlock the stress that can inhibit the body’s ability to heal, releasing tension and bringing your body and mind to a warm place. Led by Yoga Zone senior teacher, Charles Matkin, on the beautiful island of Jamaica. These two 20-minute yoga programs will leave you feeling relaxed and rejuvenated, while creating a wider range of flexibility. Yoga becomes the best part of your day with Yoga Zone’s proven formula of result-oriented programs with age-defying gentle exercises. Consult your physician before your begin this, or any exercise program.

Качество: DVDRip
Формат: AVI 1.0 (VFW 1.1)
Видео кодек: XviD MPEG-4
Аудио кодек: MPEG Layer 3

Видео: XviD, 640 x 480, 4/3, 1 078 Kbps, 29.970 fps, 0.117 b/px
Аудио: MPEG-1 Audio layer 3, 128 Kbps, CBR, 48.0 KHz, 2 ch.

Видео: XviD, 640 x 480, 4/3, 910 Kbps, 29.970 fps, 0.099 b/px
Аудио: MPEG-1 Audio layer 3, 128 Kbps, CBR, 48.0 KHz, 2 ch.

Код:

Код: Выделить всё

Complete name                    : Yoga Zone - Gentle Yoga For Beginners\Yoga Zone - Gentle Yoga For Beginners - Workout 1.avi
Format                           : AVI
Format/Info                      : Audio Video Interleave
File size                        : 190 MiB
Duration                         : 21mn 44s
Overall bit rate                 : 1 219 Kbps
Writing library                  : VirtualDub build 28312/release

Video
ID                               : 0
Format                           : MPEG-4 Visual
Format profile                   : Advanced Simple@L5
Format settings, BVOP            : Yes
Format settings, QPel            : No
Format settings, GMC             : No warppoints
Format settings, Matrix          : Default (H.263)
Muxing mode                      : Packed bitstream
Codec ID                         : XVID
Codec ID/Hint                    : XviD
Duration                         : 21mn 44s
Bit rate                         : 1 078 Kbps
Width                            : 640 pixels
Height                           : 480 pixels
Display aspect ratio             : 4:3
Frame rate                       : 29.970 fps
Color space                      : YUV
Chroma subsampling               : 4:2:0
Bit depth                        : 8 bits
Scan type                        : Progressive
Bits/(Pixel*Frame)               : 0.117
Stream size                      : 168 MiB (88%)
Writing library                  : XviD 1.1.2 (UTC 2006-11-01)

Audio
ID                               : 1
Format                           : MPEG Audio
Format version                   : Version 1
Format profile                   : Layer 3
Mode                             : Joint stereo
Mode extension                   : MS Stereo
Codec ID                         : 55
Codec ID/Hint                    : MP3
Duration                         : 21mn 44s
Bit rate mode                    : Constant
Bit rate                         : 128 Kbps
Channel(s)                       : 2 channels
Sampling rate                    : 48.0 KHz
Stream size                      : 19.9 MiB (10%)
Alignment                        : Split accross interleaves
Interleave, duration             : 33 ms (1.00 video frame)
Interleave, preload duration     : 500 ms
Релиз от группы
У вас нет необходимых прав для просмотра вложений в этом сообщении.