Scott Cole - Millennium Stretch [2008 г., фитнес, DVDRip, ENG] (Видеоуроки)

Торрент Сидеров Личеров Размер
torrent_3186024.torrent
0 0 605.96 МБ
Аватара пользователя
Stepan
Администратор
Сообщения: 52270
Зарегистрирован: 05 ноя 2011, 20:36

Scott Cole - Millennium Stretch [2008 г., фитнес, DVDRip, ENG] (Видеоуроки)

Сообщение Stepan » 19 сен 2016, 00:52

Scott Cole - Millennium Stretch

Classic Gold Edition
Год выпуска: 2008
Страна: USA
Жанр: фитнес
Продолжительность: 58:15
Язык: Английский
Перевод: Отсутствует
Описание: Присоединяйтесь к Скотту Коулу и его путешествию по методам релаксации в комплексном 2-часовом тренинге с множеством вариантов, которые могут быть полностью подстроены под вас. Делайте растяжку стоя, сидя, вдвоём или один, в Millennium Stretch Classic Gold Edition есть что-то для всех.

MillenniumStretch - почувствуйте, как уходит напряжение. Цигун, тай-чи, йога, стретчинг – эта восхитительная, целительная смесь техник направлена на улучшение гибкости и освобождение от отрицательной энергии.

Millennium Stretch for 2 - Partnered Relaxation: Занимайтесь стретчингом вместе с партнёром и становитесь сильнее, гибче, научитесь понимать своё тело и доверять. Друзья, члены семья, клиент и тренер – любые два человека могут наслаждаться этой программой.

Beyond the 8 Poses of Empowerment: Так же изучите 8 всемирно известных поз Скотта – что это за позы, откуда они взялись и как они могут вам помочь.



Качество: DVDRip
Формат: AVI
Видео: DivX 5, 672 x 452, 4/3, 1 250 Kbps, 29.970 fps, 0.137 b/px
Аудио: AC3, 192 Kbps, CBR, 48.0 KHz, 2 ch.

Код:

Код: Выделить всё

Complete name                    : Scott Cole - Millennium Stretch.avi
Format                           : AVI
Format/Info                      : Audio Video Interleave
File size                        : 606 MiB
Duration                         : 58mn 15s
Overall bit rate                 : 1 454 Kbps
Writing application              : VirtualDubMod 1.5.4.1 (build 2178/release)
Writing library                  : VirtualDubMod build 2178/release

Video
ID                               : 0
Format                           : MPEG-4 Visual
Format settings, BVOP            : Yes
Format settings, QPel            : No
Format settings, GMC             : No warppoints
Format settings, Matrix          : Default (H.263)
Muxing mode                      : Packed bitstream
Codec ID                         : DX50
Codec ID/Hint                    : DivX 5
Duration                         : 58mn 15s
Bit rate                         : 1 250 Kbps
Width                            : 672 pixels
Height                           : 452 pixels
Display aspect ratio             : 4:3
Frame rate                       : 29.970 fps
Color space                      : YUV
Chroma subsampling               : 4:2:0
Bit depth                        : 8 bits
Scan type                        : Progressive
Bits/(Pixel*Frame)               : 0.137
Stream size                      : 521 MiB (86%)
Writing library                  : DivX 6.2.5 (UTC 2006-06-16)

Audio
ID                               : 1
Format                           : AC-3
Format/Info                      : Audio Coding 3
Mode extension                   : CM (complete main)
Codec ID                         : 2000
Duration                         : 58mn 15s
Bit rate mode                    : Constant
Bit rate                         : 192 Kbps
Channel(s)                       : 2 channels
Channel positions                : Front: L R
Sampling rate                    : 48.0 KHz
Bit depth                        : 16 bits
Stream size                      : 80.0 MiB (13%)
Alignment                        : Split accross interleaves
Interleave, duration             : 33 ms (1.00 video frame)
Interleave, preload duration     : 500 ms
#7 #7 SCOTT COLE continues to lift spirits, open minds, tone bodies, and inspire hearts through motivational appearances in over 30 countries.
#77Earning the title of National Aerobic Champion, starring in the top-selling ABS OF STEEL video series, and creating conscious DVD programs like MILLENNIUM STRETCH, DISCOVER TAI CHI, and GET FIT AMERICA FOR KIDS (Winner of NAPPA Best Fitness DVD), Scott considers no audience off limits, and has dedicated his life to increasing "wellness literacy" on all fronts.

Scott's speaking engagements run the gamut from school assemblies to spiritual venues to fitness conventions to self and business empowerment. Scott's LIVE "Interactive Keynote" clients include CEO John Chamber and Cisco Systems, Cartus Annual Forum, Starlight, Frostburg State University, and the United States Navy.

Scott also performs Wellness Weekends and Retreats at locations worldwide including Canyon Ranch, Kripalu Center, Bacara Resort, La Quinta Resort, Lakewoods Resort, and the Green Gulch Farm and Zen Center.

Named one of the Top 5 Fitness Instructors in the world by IDEA, Scott is an American Fitness (AFAA) Notable for his work with HIV/AIDS and abused children. He is a continuing education provider for AAAI-ISMA. His home base is currently Palm Springs California at the Well Spirit Fitness Center.

With over 25 published products from motivational music to meditation to martial arts, Scott appears regularly on television as a health and wellness expert -- ABC's The View, CBS' The Early Show, LIVE with Regis and Kelly, CNN Headline News, SoapTalk, The Food Network, HGTV, E!, and in over 500 publications worldwide, from WEB MD to SHAPE to Men's Fitness to The Wall Street Journal.

Scott's personal client base includes Christian Bale, Barry Manilow, Stefanie Powers, Baywatch's sexy Gena Lee Nolin, Director/Producer David Lee and legendary Hollywood photographer Michael Childers.

For more on Scott Cole visit www.GetFitAmerica.us
[/hr]Аннотация на англ. языке
Join Scott Cole on a multi-dimensional journey of proven relaxation techniques – in a comprehensive 2-hour array of workout options that can be customized to fit your own schedule and fitness needs. From standing and seated stretching options to partnered or individual workouts, Millennium Stretch Classic Gold Edition has something for everyone and is appropriate for all ages and fitness levels. The Original Millennium Stretch Workout Feel the stress melt away as you explore transformational movement therapy, qigong, tai chi, yoga, stretching and guided imagery. This delectable blend of healing arts is designed to improve flexibility and release blocked energy. Millennium Stretch for 2: Partnered Relaxation Pair up for increased strength, flexibility, body awareness and trust. Couples, friends, family members, trainers and clients – any two people can enjoy this powerful program. Beyond the 8 Poses of Empowerment Explore the mysteries of Scott's world-renowned 8 Poses – what they are, where they come from and how they can work for you.
За перевод аннотации спасибо Раздача от группы
У вас нет необходимых прав для просмотра вложений в этом сообщении.