Ebru Salli ile Pilates [2013, пилатес, DVDRip] (Видеоурок)

Торрент Сидеров Личеров Размер
torrent_4890077.torrent
1 1 502.87 МБ
Аватара пользователя
Stepan
Администратор
Сообщения: 52269
Зарегистрирован: 05 ноя 2011, 20:36

Ebru Salli ile Pilates [2013, пилатес, DVDRip] (Видеоурок)

Сообщение Stepan » 19 сен 2016, 01:17

Ebru Salli ile Pilates

Страна: Турция
Тематика: пилатес
Тип раздаваемого материала: Видеоурок
Продолжительность: 00:56:58
Год выпуска: 2013

Язык: Турецкий
Перевод: Отсутствует

Описание:
Эбру Салли пилатес легко можно делать дома. Упражнения для среднего уровня. Часть упражнений делается с эластичной лентой и фитболом.
Ebru Sally is another workout of Pilates, which easily can be done at home. At this time the exercises are designed for intermediate level training. Part of the exercise is done with an elastic band and fitbolom.

Качество: DVDRip
Формат: AVI
Видео кодек: DivX
Аудио кодек: MP3
Видео: MPEG-4 Visual at 1 101 Kbps 688 x 384 (1.792) at 25.000 fps
Аудио: MPEG Audio at 128 Kbps 2 channels, 48.0 KHz
General
Complete name : G:\123\Потерянные файлы\Пилатес\Ebru Salli ile Pilates.avi
Format : AVI
Format/Info : Audio Video Interleave
File size : 503 MiB
Duration : 56mn 58s
Overall bit rate : 1 234 Kbps
Writing application : MEncoder SVN-r22963
Writing library : MPlayer

Video
ID : 0
Format : MPEG-4 Visual
Format profile : Simple@L1
Format settings, BVOP : No
Format settings, QPel : No
Format settings, GMC : No warppoints
Format settings, Matrix : Default (H.263)
Codec ID : XVID
Codec ID/Hint : XviD
Duration : 56mn 58s
Bit rate : 1 101 Kbps
Width : 688 pixels
Height : 384 pixels
Display aspect ratio : 16:9
Frame rate : 25.000 fps
Color space : YUV
Chroma subsampling : 4:2:0
Bit depth : 8 bits
Scan type : Progressive
Compression mode : Lossy
Bits/(Pixel*Frame) : 0.167
Stream size : 449 MiB (89%)
Writing library : Lavc51.40.2

Audio
ID : 1
Format : MPEG Audio
Format version : Version 1
Format profile : Layer 3
Mode : Joint stereo
Mode extension : MS Stereo
Codec ID : 55
Codec ID/Hint : MP3
Duration : 56mn 57s
Bit rate mode : Constant
Bit rate : 128 Kbps
Channel(s) : 2 channels
Sampling rate : 48.0 KHz
Compression mode : Lossy
Stream size : 52.1 MiB (10%)
Alignment : Split accross interleaves
Interleave, duration : 500 ms (12.50 video frames)
Interleave, preload duration : 1000 ms
Writing library : LAME3.97
У вас нет необходимых прав для просмотра вложений в этом сообщении.