Четыре тренера (1-3 сезон) [2008-2010, бодифлекс, китайская гимнастика, пилатес, аэробика, SATRip, RUS]

Торрент Сидеров Личеров Размер
torrent_4751904.torrent
8 4 69.64 ГБ
Аватара пользователя
Stepan
Администратор
Сообщения: 52270
Зарегистрирован: 05 ноя 2011, 20:36

Четыре тренера (1-3 сезон) [2008-2010, бодифлекс, китайская гимнастика, пилатес, аэробика, SATRip, RUS]

Сообщение Stepan » 19 сен 2016, 01:23

Четыре тренера (1-3 сезон)

Страна: Россия
Тематика: бодифлекс, китайская гимнастика, пилатес, аэробика, йога
Тип раздаваемого материала: Видеоуроки
Продолжительность: 116 × ~ 00:52:00
Язык: Русский
Перевод: Не требуется
Год выпуска: 2008-2010

Описание: Вы когда-нибудь тренировались под руководством сразу четырёх тренеров? Если нет, то программа «Четыре тренера» — для вас. Неожиданное соединение бодифлекса, китайской гимнастики, пилатеса, аэробики, йоги и хип-хопа дает положительный результат: отличную фигуру и хорошее настроение. Попробуйте эту необычную методику на себе.

Качество: WEBRip
Формат: MP4
Видео кодек: H.264
Аудио кодек: AAC
Видео: AVC, 720×576 (1.25:1), 1500 кбит/сек, 50 fps
Аудио: AAC, 241 кбит/с (Variable), 48.0 KHz, 2 ch


General
Complete name : G:\JV\Четыре тренера\3 сезон\07.mp4
Format : MPEG-4
Format profile : Base Media / Version 2
Codec ID : mp42
File size : 618 MiB
Duration : 52mn 0s
Overall bit rate mode : Constant
Overall bit rate : 1 662 Kbps
Encoded date : UTC 2010-12-27 17:19:44
Tagged date : UTC 2010-12-27 17:19:44

Video
ID : 1
Format : AVC
Format/Info : Advanced Video Codec
Format profile : High@L3.2
Format settings, CABAC : Yes
Format settings, ReFrames : 4 frames
Codec ID : avc1
Codec ID/Info : Advanced Video Coding
Duration : 52mn 0s
Bit rate mode : Constant
Bit rate : 1 500 Kbps
Width : 720 pixels
Height : 576 pixels
Display aspect ratio : 4:3
Frame rate mode : Constant
Frame rate : 50.000 fps
Original frame rate : 25.000 fps
Standard : PAL
Color space : YUV
Chroma subsampling : 4:2:0
Bit depth : 8 bits
Scan type : Interlaced
Bits/(Pixel*Frame) : 0.072
Stream size : 558 MiB (90%)
Language : English
Encoded date : UTC 2010-12-27 17:19:44
Tagged date : UTC 2010-12-27 17:19:44
Color primaries : BT.601 PAL
Transfer characteristics : BT.470 System B, BT.470 System G
Matrix coefficients : BT.601

Audio
ID : 2
Format : AAC
Format/Info : Advanced Audio Codec
Format profile : LC
Codec ID : 40
Duration : 52mn 0s
Bit rate mode : Constant
Bit rate : 157 Kbps
Nominal bit rate : 4 295 Mbps
Channel(s) : 2 channels
Channel positions : Front: L R
Sampling rate : 48.0 KHz
Compression mode : Lossy
Stream size : 58.5 MiB (9%)
Language : English
Encoded date : UTC 2010-12-27 17:19:44
Tagged date : UTC 2010-12-27 17:19:44
У вас нет необходимых прав для просмотра вложений в этом сообщении.