Ольга Круподерова - Аэро - шейп [2005 г., Бодифлекс, калланетика, йога, танец живота, DVDRip] (Видеоурок)

Торрент Сидеров Личеров Размер
torrent_3987173.torrent
0 0 1.09 ГБ
Аватара пользователя
Stepan
Администратор
Сообщения: 52388
Зарегистрирован: 05 ноя 2011, 20:36

Ольга Круподерова - Аэро - шейп [2005 г., Бодифлекс, калланетика, йога, танец живота, DVDRip] (Видеоурок)

Сообщение Stepan » 19 сен 2016, 01:24

Ольга Круподерова - Аэро - шейп
Самая результативная программа для похудения
Страна: Россия
Тематика: Бодифлекс, каланетика, йога, танец живота
Тип раздаваемого материала: Видеоурок
Год выпуска: 2005
Продолжительность: 01:12:32
Язык: русский
Описание:

"Приветствую вас, Меня зовут Круподерова Ольга Вячеславовна.
Я - директор Волгоградского Фитнес - клуба "Ольга". Наш клуб несколько лет преподает новую фитнес программу, разработанную нами специально для наших клиентов и которую я хотела бы предложить вам. Данный Видео - Курс был разработан на основании исследований воздействия кислорода и, в частности, аэробного дыхания на организм человека и процесс похудения.

Аэробное дыхание (кислородный недостаток и переизбыток), калланетика и лучшие позы из йоги, а так же движения из танца живота, которые способствуют уменьшению талии, лучшему пищеварению и тренировке женских мышц - вот основа нашего комплекса, получившего название "Аэро-Шейп".

Результаты этого комплекса говорят сами за себя. Похудение: минимум З см, максимум 10 см в месяц при занятиях 3 раза в неделю, оздоровление спины, избавление от остеохондрозных болей, жировиков, одышки, артрита, скачков давления, хронических бронхитов, воспаления женских органов, излечение бесплодия (за последние полгода трое беременных, ранее не имевших возможности родить из-за воспаления или гормонального сбоя, благополучно справились с недугом), а так же улучшение состояния "мышц любви", что положительно отражается на сексуальной жизни женщин.

Так же в комплекс включены медитации, направленные на привлечение любви в свою жизнь и поиск идеального партнера, усиление привлекательности и притягивания в свою жизнь денег.
Уровень: начальный / средний
Качество: DVDRip, Формат: AVI
Видео : XviD, 640 x 480, 4/3, 1 951 Kbps, 25 fps, 0.25 b/px
Аудио 1: AC3 Dolby Digital, 192 Kbps, CBR, 48.0 KHz, 2 ch. RUS


Насколько смогла понять из информации в сети, Круподерова Ольга (Amany) принадлежит миру BellyDance
Код:

Код: Выделить всё

Complete name                    : \AS\VIDEO_TS\VTS_01_1.VOB
Format                           : MPEG-PS
File size                        : 1 024 MiB
Duration                         : 22mn 39s
Overall bit rate                 : 6 315 Kbps

Video
ID                               : 224 (0xE0)
Format                           : MPEG Video
Format version                   : Version 2
Format profile                   : Main@Main
Format settings, BVOP            : Yes
Format settings, Matrix          : Default
Format settings, GOP             : M=3, N=12
Duration                         : 22mn 39s
Bit rate mode                    : Variable
Bit rate                         : 5 997 Kbps
Nominal bit rate                 : 8 000 Kbps
Width                            : 720 pixels
Height                           : 576 pixels
Display aspect ratio             : 4:3
Frame rate                       : 25.000 fps
Standard                         : PAL
Color space                      : YUV
Chroma subsampling               : 4:2:0
Bit depth                        : 8 bits
Scan type                        : Interlaced
Scan order                       : Bottom Field First
Bits/(Pixel*Frame)               : 0.578
Stream size                      : 972 MiB (95%)

Audio
ID                               : 128 (0x80)
Format                           : AC-3
Format/Info                      : Audio Coding 3
Mode extension                   : CM (complete main)
Duration                         : 22mn 39s
Bit rate mode                    : Constant
Bit rate                         : 192 Kbps
Channel(s)                       : 2 channels
Channel positions                : Front: L R
Sampling rate                    : 48.0 KHz
Bit depth                        : 16 bits
Stream size                      : 31.1 MiB (3%)

Menu
Спасибо за Релиз от группы
У вас нет необходимых прав для просмотра вложений в этом сообщении.