Гибкая сила (1-5 сезон) [2009-2011, гимнастика, фитнес, йога, стретчинг, SATRip, RUS]

Торрент Сидеров Личеров Размер
torrent_4758352.torrent
2 1 59.76 ГБ
Аватара пользователя
Stepan
Администратор
Сообщения: 52267
Зарегистрирован: 05 ноя 2011, 20:36

Гибкая сила (1-5 сезон) [2009-2011, гимнастика, фитнес, йога, стретчинг, SATRip, RUS]

Сообщение Stepan » 19 сен 2016, 01:25

Гибкая сила с Юлией Зайченковой (1-5 сезон)

Страна: Россия
Тематика: гимнастика, фитнес, йога, стретчинг
Тип раздаваемого материала: Видеоуроки
Продолжительность: 150 × ~ 00:51:00
Год выпуска: 2009-2011

Язык: Русский
Перевод: Не требуется

Описание: Гибкая сила — авторская программа инструктора Юлии Зайченковой. В основе — йога, пилатес, специальные упражнения на выносливость и балансировку. Разные степени нагрузки позволяют найти свой собственный ритм выполнения упражнений, благодаря чему «Гибкую силу» может практиковать абсолютно любой человек.

Качество: SATRip
Формат: AVI
Видео кодек: XviD, DivX
Аудио кодек: MP3
Видео: XviD, DivX, ~ 640×480, ~ 720x540 (4:3), ~ 1200 Кбит/с
Аудио: MP3, 64-128 Кбит/с, 2 ch
General
Complete name : G:\JV\Гибкая сила с Юлией Зайченковой (1-5 сезон)\1 сезон (2009)\01.avi
Format : AVI
Format/Info : Audio Video Interleave
File size : 744 MiB
Duration : 52mn 54s
Overall bit rate : 1 966 Kbps
Writing library : VirtualDub build 30009/release

Video
ID : 0
Format : MPEG-4 Visual
Format profile : Advanced Simple@L5
Format settings, BVOP : Yes
Format settings, QPel : No
Format settings, GMC : No warppoints
Format settings, Matrix : Default (H.263)
Codec ID : XVID
Codec ID/Hint : XviD
Duration : 52mn 54s
Bit rate : 1 829 Kbps
Width : 720 pixels
Height : 540 pixels
Display aspect ratio : 4:3
Frame rate : 25.000 fps
Color space : YUV
Chroma subsampling : 4:2:0
Bit depth : 8 bits
Scan type : Progressive
Compression mode : Lossy
Bits/(Pixel*Frame) : 0.188
Stream size : 692 MiB (93%)
Writing library : XviD 1.2.1 (UTC 2008-12-04)

Audio
ID : 1
Format : MPEG Audio
Format version : Version 1
Format profile : Layer 3
Mode : Joint stereo
Codec ID : 55
Codec ID/Hint : MP3
Duration : 52mn 54s
Bit rate mode : Constant
Bit rate : 128 Kbps
Channel(s) : 2 channels
Sampling rate : 48.0 KHz
Compression mode : Lossy
Stream size : 48.4 MiB (7%)
Alignment : Split accross interleaves
Interleave, duration : 40 ms (1.00 video frame)
Interleave, preload duration : 500 ms
У вас нет необходимых прав для просмотра вложений в этом сообщении.