Аэро - шейп [2005 г., Бодифлекс, каланетика, йога, DVD5]

Торрент Сидеров Личеров Размер
torrent_3985252.torrent
3 2 3.14 ГБ
Аватара пользователя
Stepan
Администратор
Сообщения: 52270
Зарегистрирован: 05 ноя 2011, 20:36

Аэро - шейп [2005 г., Бодифлекс, каланетика, йога, DVD5]

Сообщение Stepan » 19 сен 2016, 01:31

Аэро - шейп

Страна: Россия
Год выпуска: 2005
Тематика: Бодифлекс, каланетика, йога
Продолжительность: 01:12:25
Перевод: Не требуется

Описание: Здравствуйте, Меня зовут Круподерова Ольга Вячеславовна.

Я - директор Волгоградского Фитнес - клуба "Ольга". Мой клуб вот уже на протяжении более двух лет практикует новую фитнес программу, составленную нами для наших клиентов и которую я хотела бы предложить вам на видео носителях DVD. Программа была разработана на основании исследований воздействия кислорода и, в частности, аэробного дыхания на организм человека и процесс похудения.

Аэробное дыхание (кислородный недостаток и переизбыток), калланетика и лучшие позы из йоги, а так же движения из танца живота, которые способствуют уменьшению талии, лучшему пищеварению и тренировке женских мышц - вот основа нашего комплекса, получившего название "Аэро-Шейп".

Результаты этого комплекса говорят сами за себя. Похудение: минимум З см, максимум 10 см в месяц при занятиях 3 раза в неделю, оздоровление спины, избавление от остеохондрозных болей, жировиков, одышки, артрита, скачков давления, хронических бронхитов, воспаления женских органов, излечение бесплодия (за последние полгода трое беременных, ранее не имевших возможности родить из-за воспаления или гормонального сбоя, благополучно справились с недугом), а так же улучшение состояния "мышц любви", что великолепно отражается на сексуальной жизни женщин.

Так же в комплекс включены медитации, направленные на привлечение любви в свою жизнь и поиск идеального партнера, усиление привлекательности и притягивания в свою жизнь денег.

Качество: DVD5
Формат: DVD video
Видео кодек: MPEG2
Аудио кодек: AC3
Видео: PAL 4:3 (720x576) VBR, 25fps, 5 872kbps
Аудио: Dolby AC3, CBR, stereo, 48kHz, 192kbps
General
Complete name : F:\uTorrent\AS\VIDEO_TS\VTS_01_1.VOB
Format : MPEG-PS
File size : 1 024 MiB
Duration : 22mn 39s
Overall bit rate : 6 315 Kbps

Video
ID : 224 (0xE0)
Format : MPEG Video
Format version : Version 2
Format profile : Main@Main
Format settings, BVOP : Yes
Format settings, Matrix : Default
Duration : 22mn 39s
Bit rate mode : Variable
Bit rate : 5 872 Kbps
Nominal bit rate : 8 000 Kbps
Width : 720 pixels
Height : 576 pixels
Display aspect ratio : 4:3
Frame rate : 25.000 fps
Standard : PAL
Resolution : 8 bits
Colorimetry : 4:2:0
Scan type : Interlaced
Scan order : Bottom Field First
Bits/(Pixel*Frame) : 0.566
Stream size : 952 MiB (93%)

Audio
ID : 128 (0x80)
Format : AC-3
Format/Info : Audio Coding 3
Duration : 22mn 39s
Bit rate mode : Constant
Bit rate : 192 Kbps
Channel(s) : 2 channels
Channel positions : L R
Sampling rate : 48.0 KHz
Stream size : 31.1 MiB (3%)



У вас нет необходимых прав для просмотра вложений в этом сообщении.