Joey Bull - Ballet Workout: Total Body Toning / Джой Булл - Балет: Новый взгляд на фитнес [2008 г., фитнес, DVDRip, RUS

Торрент Сидеров Личеров Размер
torrent_3352391.torrent
1 1 488.85 МБ
Аватара пользователя
Stepan
Администратор
Сообщения: 52269
Зарегистрирован: 05 ноя 2011, 20:36

Joey Bull - Ballet Workout: Total Body Toning / Джой Булл - Балет: Новый взгляд на фитнес [2008 г., фитнес, DVDRip, RUS

Сообщение Stepan » 19 сен 2016, 01:33

Joey Bull - Ballet Workout: Total Body Toning / Джой Булл - Балет: Новый взгляд на фитнес

Healthy Living Series
#7

Год выпуска: 2008
Страна: Великобритания / Россия
Жанр: фитнес
Язык: английский
Перевод: русский одноголосый
Продолжительность: 59:08
Описание: Джой Булл - Балет: Новый взгляд на фитнес
Перед Вами оригинальная экспресс-программа, созданная специально для занятых женщин, следящих за собой. Наш курс поможет не только похудеть, но и сохранить здоровую осанку, придать грациозность и изящность движениям, не изнуряя себя при этом многочасовыми занятиями в студии. Уникальность программы заключается в нетривиальном подходе к похудению, основанном на сочетании упражнений из классического балета, позволяет сбросить лишний вес, укрепить мышцы, обрести легкость.


Качество: DVDRip
Формат: AVI
Видео: XviD, 720 x 400, 16/9, 885 Kbps, 25.000 fps, 0.123 b/px
Аудио:
Аудиодорожка № 1: MPEG-1 Audio layer 3, 128 Kbps, CBR, 48.0 KHz, русский одноголосый
Аудиодорожка № 2: MPEG-1 Audio layer 3, 128 Kbps, CBR, 48.0 KHz, английский
Постеры кликабельны
Меню - скриншоты DVD
-

Joey Bull - Ballet Workout: Total Body Toning (Healthy Living Series)
Whether you are after a firmer bottom, toned legs and abs or trimming the fat, Ballet Workout will help you reach your goals! Ballet Workout takes the best fitness ingredients from the world of classical dance and presents then in a fun new workout designed to achieve impressive and lasting results. Under Joey Bull's guidance a fitter, firmer you is just around the corner.... and you don't have to be a dancer! Combining easy to follow strength and cardio exercises Ballet Workout has been proven to attain tighter, fitter, stronger, leaner bodies and improved posture, poise, balance and control. Here's to a fitter and firmer you!
Код:

Код: Выделить всё

Complete name                    : \Joey Bull Ballet Workout - Total Body Toning\VIDEO_TS\VTS_02_1.VOB
Format                           : MPEG-PS
File size                        : 1 024 MiB
Duration                         : 17mn 5s
Overall bit rate                 : 8 377 Kbps

Video
ID                               : 224 (0xE0)
Format                           : MPEG Video
Format version                   : Version 2
Format profile                   : Main@Main
Format settings, BVOP            : Yes
Format settings, Matrix          : Default
Format settings, GOP             : M=3, N=15
Duration                         : 17mn 5s
Bit rate mode                    : Variable
Bit rate                         : 7 000 Kbps
Width                            : 720 pixels
Height                           : 576 pixels
Display aspect ratio             : 16:9
Frame rate                       : 25.000 fps
Standard                         : PAL
Color space                      : YUV
Chroma subsampling               : 4:2:0
Bit depth                        : 8 bits
Scan type                        : Interlaced
Scan order                       : Bottom Field First
Bits/(Pixel*Frame)               : 0.675
Stream size                      : 816 MiB (80%)

Audio
ID                               : 160 (0xA0)
Format                           : PCM
Format settings, Endianness      : Big
Format settings, Sign            : Signed
Muxing mode                      : DVD-Video
Duration                         : 17mn 5s
Bit rate mode                    : Constant
Bit rate                         : 1 536 Kbps
Channel(s)                       : 2 channels
Channel positions                : Front: L R
Sampling rate                    : 48.0 KHz
Bit depth                        : 16 bits
Stream size                      : 188 MiB (18%)

Menu
Первой - по умолчанию - стоит аудио дорожка с русским переводом.
Если Вы хотите смотреть видео с оригинальной английской дорожкой, Вам нужно выбрать 2-ю дорожку на Вашем плеере.
Релиз от группы
У вас нет необходимых прав для просмотра вложений в этом сообщении.