Chris Barnard - Total Power Training [2013, фитнес, воркаут, HDRip, ENG] (Видеоурок)

Торрент Сидеров Личеров Размер
torrent_5266085.torrent
0 2 899.68 МБ
Аватара пользователя
Stepan
Администратор
Сообщения: 52267
Зарегистрирован: 05 ноя 2011, 20:36

Chris Barnard - Total Power Training [2013, фитнес, воркаут, HDRip, ENG] (Видеоурок)

Сообщение Stepan » 19 сен 2016, 01:34

Chris Barnard - Total Power Training

Тематика: фитнес, воркаут
Тип раздаваемого материала: Видеоурок
Продолжительность: 00:47:56
Год выпуска: 2013

Язык: Английский
Перевод: Отсутствует

Описание: Speed Kills + Power Punishes, Discover the Secrets that are Transforming Underdog Athletes into D-1 Talent and Earning Pro Contracts
My secret series of exercises which strengthen the posterior chain leading to faster sprint times and a higher vertical jump
A variety of easy to follow plyometric routines to excite the central nervous system and tap into your explosive power
A short but wickedly effective total body warm-up routine which breaks your body of restrictive patterning, allowing you to express your true athletic potential
A wide-array of athletic training movements which can be easily swapped in and out of your program so you can train in any facility – regardless of equipment
A systemic approach to clearing out muscle imbalances and re-aligning the body into the proper position to exhibit maximal speed, strength and power
A plug and play system of training which will make you a better overall athlete – regardless of sport
The exact system I used to prepare for the NFL combine, where I outperformed players currently playing in the league
A radically different approach to injury prevention which guarantees you stay on the field, court or pitch the entire season
Q: What is Total Power Training and how was it developed?
A: Total Power Training is a revolutionary performance training system. It was developed by former University football player and Strength Coach Chris Barnard. It is the first training program designed to help athletes from all manner of sport maximize their power without sacrificing development of sport specific skill
Q: What makes Total Power Training different from other strength training programs
A: Most training programs currently on the market are based around an antiquated, non-functional approach to training; bodybuilding. Total Power Training is one of the few programs where the primary focus is shifted from the muscular system to the central nervous system and the development of functional characteristics in the athlete
Q: Is this program only for people who play baseball, basketball or football?
A: Absolutely not. As a sports performance coach I work with a variety of athletes. The Total Power Training program is the exact framework I use with all my athletes- ranging from varsity swimmers to professional dancers. Take it from me… If it can be used to transform this wide array of athletes into champions, it will do the same for you
Q: My son is 13 is he old enough to follow your program?
A: YES, studies have supported that weight lifting displays NO damage to the epiphyseal plates this is the myth that young kids have there growth stunted by lifting. I know plenty who have followed this from 11 and up… It’s more about form and safety.
Q: What happens if TPT doesn’t work for me?
A: The entire TPT system is backed by my 60-day, 100% money back guarantee. If for any reason whatsoever you find Total Power Training isn’t for you- simply send me an email and I will refund all of your investment.
Q: What if I don’t have access to all of the equipment; what kind of equipment do I need?
A: You DO NOT NEED special equipment to use this program… every exercise in the program has been chosen so it can be easily substituted out with a similar alternative. This way you can make sure you train hard and reach all of your goals even if you only have access to basic equipment.
http://totalpowertraining.com/
http://elitespeedacademy.com/
Доп. информация:
Power Training\Energy Transfer Core.mp4
Format : MPEG-4
Format profile : Base Media / Version 2
Codec ID : mp42
File size : 36.7 MiB
Duration : 1mn 55s
Overall bit rate mode : Variable
Overall bit rate : 2 656 Kbps
Encoded date : UTC 2013-09-18 20:18:34
Tagged date : UTC 2013-09-18 20:18:34

Video
ID : 1
Format : AVC
Format/Info : Advanced Video Codec
Format profile : High@L3.1
Format settings, CABAC : Yes
Format settings, ReFrames : 4 frames
Codec ID : avc1
Codec ID/Info : Advanced Video Coding
Duration : 1mn 55s
Bit rate : 2 500 Kbps
Width : 1 280 pixels
Height : 720 pixels
Display aspect ratio : 16:9
Frame rate mode : Constant
Frame rate : 29.970 fps
Color space : YUV
Chroma subsampling : 4:2:0
Bit depth : 8 bits
Scan type : Progressive
Bits/(Pixel*Frame) : 0.091
Stream size : 34.4 MiB (94%)
Writing library : x264 core 129 r2245 bc13772
Encoding settings : cabac=1 / ref=3 / deblock=1:0:0 / analyse=0x3:0x113 / me=hex / subme=7 / psy=1 / psy_rd=1.00:0.00 / mixed_ref=1 / me_range=16 / chroma_me=1 / trellis=1 / 8x8dct=1 / cqm=0 / deadzone=21,11 / fast_pskip=1 / chroma_qp_offset=-2 / threads=12 / lookahead_threads=2 / sliced_threads=0 / nr=0 / decimate=1 / interlaced=0 / bluray_compat=0 / constrained_intra=0 / bframes=3 / b_pyramid=2 / b_adapt=1 / b_bias=0 / direct=1 / weightb=1 / open_gop=0 / weightp=2 / keyint=90 / keyint_min=30 / scenecut=40 / intra_refresh=0 / rc_lookahead=40 / rc=2pass / mbtree=1 / bitrate=2500 / ratetol=1.0 / qcomp=0.60 / qpmin=5 / qpmax=69 / qpstep=4 / cplxblur=20.0 / qblur=0.5 / vbv_maxrate=3750 / vbv_bufsize=12500 / nal_hrd=none / ip_ratio=1.40 / aq=1:1.00
Encoded date : UTC 2013-09-18 20:18:34
Tagged date : UTC 2013-09-18 20:18:34

Audio
ID : 2
Format : AAC
Format/Info : Advanced Audio Codec
Format profile : LC
Codec ID : 40
Duration : 1mn 55s
Source duration : 1mn 55s
Bit rate mode : Variable
Bit rate : 158 Kbps
Channel(s) : 2 channels
Channel positions : Front: L R
Sampling rate : 44.1 KHz
Compression mode : Lossy
Stream size : 2.18 MiB (6%)
Source stream size : 2.18 MiB (6%)
Encoded date : UTC 2013-09-18 20:18:34
Tagged date : UTC 2013-09-18 20:18:34
Качество: HDRip
Формат: MP4
Видео кодек: H.264
Аудио кодек: AC3
Видео: AVC, 2500 Kbps, 1280 x 720, 29.970 fps
Аудио: AAC 158 Kbps, 2 channels, 44.1 KHz
У вас нет необходимых прав для просмотра вложений в этом сообщении.