MBS / Модуль: Корпоративные финансы. Тема: Принятие инвестиционных решений [2010, Бизнес, экономика и финансы, DVD5, RUS

Открытие, развитие и стратегия введения бизнеса.
Торрент Сидеров Личеров Размер
torrent_3327586.torrent
0 0 4.43 ГБ
Аватара пользователя
Stepan
Администратор
Сообщения: 52270
Зарегистрирован: 05 ноя 2011, 20:36

MBS / Модуль: Корпоративные финансы. Тема: Принятие инвестиционных решений [2010, Бизнес, экономика и финансы, DVD5, RUS

Сообщение Stepan » 19 сен 2016, 08:27

MBS / Модуль: Корпоративные финансы. Тема: Принятие инвестиционных решений

Страна: RUS
Тематика: Бизнес, экономика и финансы
Тип раздаваемого материала: Видеоурок
Продолжительность: 01:06:21
Год выпуска: 2010

Язык: Русский
Перевод: Не требуется

Описание: MBA Лидер — это программа профессиональной переподготовки для тех, кто ценит свое время. Благодаря инновационной системе получения знаний Вы можете учиться в удобное для Вас время в удобном месте.
Программа MBA Лидер — это концентрированные знания о системе и стратегии управления в удобной дистанционной форме
250 часов учебных материалов
100 часов видеолекций
Лекции 30 успешных экспертов бизнес-сообщества
Оптимальное время изучения материала 6 — 12 месяцев. Свои знания Вы сможете проверить, анализируя реальные проблемные ситуации компаний, решая задачи, участвуя в системе электронного тестирования.

Качество : DVD5
Формат: DVD Video
Видео кодек: MPEG2
Аудио кодек: AC-3
Видео: PAL 720х576, 4:3, 4000 Kbps, 25.000 fps
Аудио: 192 Kbps, 2 channels, 48.0 KHz
General
Complete name : F:\Принятие инвестиционных решений\DVD\Disk 1\VIDEO_TS\VTS_02_1.VOB
Format : MPEG-PS
File size : 1 024 MiB
Duration : 33mn 25s
Overall bit rate : 4 283 Kbps

Video
ID : 224 (0xE0)
Format : MPEG Video
Format version : Version 2
Format profile : Main@Main
Format settings, BVOP : Yes
Format settings, Matrix : Default
Duration : 33mn 25s
Bit rate mode : Constant
Bit rate : 4 000 Kbps
Width : 720 pixels
Height : 576 pixels
Display aspect ratio : 4:3
Frame rate : 25.000 fps
Standard : PAL
Color space : YUV
Chroma subsampling : 4:2:0
Bit depth : 8 bits
Scan type : Interlaced
Scan order : Top Field First
Compression mode : Lossy
Bits/(Pixel*Frame) : 0.386
Stream size : 958 MiB (94%)

Audio
ID : 128 (0x80)
Format : AC-3
Format/Info : Audio Coding 3
Mode extension : CM (complete main)
Duration : 33mn 25s
Bit rate mode : Constant
Bit rate : 192 Kbps
Channel(s) : 2 channels
Channel positions : Front: L R
Sampling rate : 48.0 KHz
Bit depth : 16 bits
Compression mode : Lossy
Stream size : 45.9 MiB (4%)


У вас нет необходимых прав для просмотра вложений в этом сообщении.