John Carlton / Simple Writing System (9 DVD + Work Book + Bonus) [2008, Copywriting, DVDRip, ENG] (Видеоурок)

Открытие, развитие и стратегия введения бизнеса.
Торрент Сидеров Личеров Размер
torrent_3424388.torrent
11 4 6.2 ГБ
Аватара пользователя
Stepan
Администратор
Сообщения: 52270
Зарегистрирован: 05 ноя 2011, 20:36

John Carlton / Simple Writing System (9 DVD + Work Book + Bonus) [2008, Copywriting, DVDRip, ENG] (Видеоурок)

Сообщение Stepan » 19 сен 2016, 08:34

John Carlton / Simple Writing System (9 DVD + Work Book + Bonus)

Страна: USA
Тематика: Copywriting
Тип раздаваемого материала: Видеоурок
Продолжительность: 15:31:21
Год выпуска: 2008

Язык: Английский
Перевод: Отсутствует
DVD5:
Благодарность: за предоставленный материал.

Описание: If you're an entrepreneur or small biz owner struggling to bring in the Big Bucks, please know this:
Your lack of success is NOT because you haven't found the right super-secret trick or magic gadget.

Nope. The success you crave is being held up because of something much more simple... and much easier to solve.

So here is the Big Question #1: Do you want to waste more time chasing fads and second-guessing yourself...

... Or are you finally ready to learn the first simple step to unleashing the Killer Marketer hiding inside you?

Okay, then. Let's get started on changing your life forever...

Here's the formula: You find a hungry audience, and you offer them something they value... by communicating with them in a way that resonates deeply and moves them to action.
It's really that simple.

* The hungry audiences aren't hiding.
* Elbowing your way into the jet-stream of a market is no secret anymore. (The "art" of building a list is now so well-known, it's being given away for free during launches.)
* And once you understand the needs of your target audience, creating or finding a valuable product is flat-out easy.

So why isn't every marketer rich?

Here's why: Where most marketers get stuck (and we're talking about everyone from raw rookie to grizzled veteran)...

... is in the "communicating your sales message" part.

Fads don't sell.
Gimmicks and gadgets don’t sell.
Even building a huge list swarming with prospects won't generate cash for you...

The sad fact is... most marketers out there (both online and offline)...

...are flying BLIND trying to convert prospects
into buyers.

Please allow this Reality Check
to sink in.
So until you know how to make the sale,
you don't need another gadget.

Question #2:
Can you really learn how to do this,
quickly and easily?

The simple answer: Hell, yes, you can.
Again, it's not voodoo. It’s a system.

Question #3:
Are you humble enough to learn from the same person who helped
Frank Kern, Perry Marshall, Rich Schefren, Tellman Knudson and scores of the most successful marketers alive?

This proven teaching method makes all the difference. You absorb the skills...

By Actually Doing Them.

In this program...

* You get the inside scoop on the specifics that work...
* You learn specific ways to make it work for YOU... and...
* You actually PUT THESE SECRETS INTO ACTION!

if you will only TAKE those steps -- can suddenly and dramatically transform your ability to make "success-sized" money in business.

* No matter what market you're in.
* No matter what your dreams are.
* No matter HOW you define "success".

And especially...

No Matter How Much You've Suffered From
Writer's Block Or "Fear Of Writing" Before!

All that's really required to start your own adventure in making money is to:

* Stop making excuses...
* Find a proven resource where you can quickly learn what you need to learn...
* And make the decision to get started.

It's not complicated.
Качество : DVDRip
Формат: AVI
Видео кодек: XviD
Аудио кодек: MP3
Видео: 640x480 (1.33:1), 29.970 fps, XviD build 50, 586 kbps - 1126 kbps
Аудио: 48 kHz, MPEG Layer 3, 2 ch, ~128.00 kbps avg
DVD
Disс1 - 01:17:33 (702 МБ)
Disс2 - 01:41:36 (704 МБ)
Disс3 - 01:38:50 (704 МБ)
Disс4 - 01:35:34 (703 МБ)
Disс5 - 01:44:16 (704 МБ)
Disс6 - 02:16:14 (707 МБ)
Disс7 - 01:43:36 (704 МБ)
Disс8 - 02:15:39 (707 МБ)
Disс9 - 01:18:03 (702 МБ)
Work Book
Work Book - 282 стр. (10,5 МБ)
Bonus
Power Words - 21 стр. (1,92 МБ)
Quick Fixes - 8 стр. (864 КБ)
General
Complete name : E:\John_Carlton_Simple_Writing_System\DVD\Disс1.avi
Format : AVI
Format/Info : Audio Video Interleave
File size : 702 MiB
Duration : 1h 17mn
Overall bit rate : 1 266 Kbps
Writing application : VirtualDubMod 1.5.10.2 (build 2540/release)
Writing library : VirtualDubMod build 2540/release

Video
ID : 0
Format : MPEG-4 Visual
Format profile : Advanced Simple@L5
Format settings, BVOP : Yes
Format settings, QPel : No
Format settings, GMC : No warppoints
Format settings, Matrix : Default (MPEG)
Codec ID : XVID
Codec ID/Hint : XviD
Duration : 1h 17mn
Bit rate : 1 126 Kbps
Width : 640 pixels
Height : 480 pixels
Display aspect ratio : 4:3
Frame rate : 29.970 fps
Color space : YUV
Chroma subsampling : 4:2:0
Bit depth : 8 bits
Scan type : Progressive
Compression mode : Lossy
Bits/(Pixel*Frame) : 0.122
Stream size : 625 MiB (89%)
Writing library : XviD 1.2.1 (UTC 2008-12-04)

Audio
ID : 1
Format : MPEG Audio
Format version : Version 1
Format profile : Layer 3
Codec ID : 55
Codec ID/Hint : MP3
Duration : 1h 17mn
Bit rate mode : Constant
Bit rate : 128 Kbps
Channel(s) : 2 channels
Sampling rate : 48.0 KHz
Compression mode : Lossy
Stream size : 71.0 MiB (10%)
Alignment : Aligned on interleaves
Interleave, duration : 33 ms (1.00 video frame)
Interleave, preload duration : 504 ms
Writing library : LAME3.98r
Encoding settings : -m s -V 4 -q 2 -lowpass 17 -b 128

У вас нет необходимых прав для просмотра вложений в этом сообщении.