[UFOX] SMM Без бюджета. практический ОНЛАЙН-КУРС [2015, RUS]

Открытие, развитие и стратегия введения бизнеса.
Торрент Сидеров Личеров Размер
torrent_5174921.torrent
2 0 1.44 ГБ
Аватара пользователя
Stepan
Администратор
Сообщения: 52267
Зарегистрирован: 05 ноя 2011, 20:36

[UFOX] SMM Без бюджета. практический ОНЛАЙН-КУРС [2015, RUS]

Сообщение Stepan » 19 сен 2016, 08:36

[UFOX] SMM Без бюджета. практический ОНЛАЙН-КУРС (2015)

Страна: Россия
Тематика: Бизнес, маркетинг
Тип материала: Видео Урок
Продолжительность: 06ч:03м:00с
Язык: Русский
Перевод: Не требуется
Год выпуска: 2015
Сайт производителя: smmfree.ru
Автор: Сергей Сердюков и Алексей Купреев

Файлы примеров: присутствуют
Формат видео: MP4
Видео: AVC, 1920x1080, 16:10, 24.000 кадров/сек, 518 Кбит/сек
Аудио: AAC, 48.0 КГц, ~64.7 Кбит/сек, 2 канала

Описание:

«SMM без бюджета. Практический онлайн-курс.» Курс из разряда «Эксклюзив«
Материал очень хороший и познавательный. Всем, кто занимается продвижением будет очень полезен.

Что вы узнаете на курсе?

- 33 метода бесплатного привлечения клиентов, которые не используют 99% предпринимателей.
- Как удерживать клиентов из социальных сетей, делая повторные продажи.
- 18 элементов продающего сообщества, которые увеличат количество продаж.
- Скрипты продаж и техники работы с возражениями.
- ROI. Расчёт окупаемости вложений в SMM.
- 20 категорий качественного контента.
- 5 методов бесплатной работы с лидерами мнений.
- Основы построения успешного сообщества.

Что получают участники после прохождения?

- Готовое продающее сообщество.
- От 10 новых клиентов в день с помощью социальных сетей.
- Экономию времени на ведение сообщества в 3 раза за счет готового контент-плана.
- Автоматизированную систему аналитики.
- Продающие скрипты с конверсией в клиента до 47%
Блок 1. Подготовка
Время на прохождение – 3 дня.
Обзор социальных сетей
Составление портрета Вашего клиента
Понимание основных болей и потребностей покупателей
Формирование преимуществ Вашей компании
Анализ конкурентов, чем Вы можете быть лучше?
С чего начать присутствие в социальных сетях?

Блок 2. Продвижение
Время на прохождение – 8 дней.
18 элементов продающего сообщества
33 метода бесплатного привлечения клиентов
Алгоритм работы с администраторами сообществ
Кто такие лидеры мнений и чем они могут быть полезны?

Блок 3. Комьюнити-менеджмент
Время на прохождение – 6 дней.
Типы клиентов в социальных сетях
Как работать с каждым из типов?
Что такое скрипты продаж и чем они могут помочь?
Главный принцип обработки возражений. Что делать, если «дорого»?
Как перевести негатив в позитив?

Блок 4. Контент-менджмент
Время на прохождение – 8 дней
Почему контент Важен для всех?
Матрица контента.
12 видов контента для Вашего сообщества.
Как снизить стоимость привлеченного клиента и увеличить вовлеченность?
Полезные сервисы.

Блок 5. Аналитика
Время на прохождение – 5 дней
Как построить воронку продаж и, главное, зачем это делать?
Расчет окупаемости инвестиций в SMM.
Что такое ROI?
Полезные сервисы по аналитике.
General
Complete name : 04 Составление Портрета Вашего Клиента.mp4
Format : MPEG-4
Format profile : Base Media / Version 2
Codec ID : mp42
File size : 86.3 MiB
Duration : 20mn 29s
Overall bit rate mode : Variable
Overall bit rate : 589 Kbps
Encoded date : UTC 2036-02-06 06:28:16
Tagged date : UTC 2036-02-06 06:28:16
Writing application : HandBrake 0.10.2 2015060900

Video
ID : 1
Format : AVC
Format/Info : Advanced Video Codec
Format profile : Main@L4
Format settings, CABAC : Yes
Format settings, ReFrames : 4 frames
Codec ID : avc1
Codec ID/Info : Advanced Video Coding
Duration : 20mn 29s
Bit rate : 518 Kbps
Width : 1 920 pixels
Height : 1 080 pixels
Display aspect ratio : 16:9
Frame rate mode : Variable
Frame rate : 24.000 fps
Minimum frame rate : 12.000 fps
Maximum frame rate : 24.000 fps
Color space : YUV
Chroma subsampling : 4:2:0
Bit depth : 8 bits
Scan type : Progressive
Bits/(Pixel*Frame) : 0.010
Stream size : 75.9 MiB (88%)
Writing library : x264 core 142 r2479 dd79a61
Encoded date : UTC 2036-02-06 06:28:16
Tagged date : UTC 2036-02-06 06:28:16
Color range : Limited
Color primaries : BT.709
Transfer characteristics : BT.709
Matrix coefficients : BT.709

Audio
ID : 2
Format : AAC
Format/Info : Advanced Audio Codec
Format profile : LC
Codec ID : 40
Duration : 20mn 29s
Bit rate mode : Variable
Bit rate : 64.7 Kbps
Channel(s) : 2 channels
Channel positions : Front: L R
Sampling rate : 48.0 KHz
Compression mode : Lossy
Stream size : 9.49 MiB (11%)
Title : Stereo / Stereo
Language : English
Encoded date : UTC 2036-02-06 06:28:16
Tagged date : UTC 2036-02-06 06:28:16
У вас нет необходимых прав для просмотра вложений в этом сообщении.