MBA (Михаил Колонтай - как эффективно анализировать рынок используя матрицу БКГ) [2008 г., Мастер-класс, CamRip]

Открытие, развитие и стратегия введения бизнеса.
Торрент Сидеров Личеров Размер
torrent_2399784.torrent
7 3 41.42 МБ
Аватара пользователя
Stepan
Администратор
Сообщения: 52388
Зарегистрирован: 05 ноя 2011, 20:36

MBA (Михаил Колонтай - как эффективно анализировать рынок используя матрицу БКГ) [2008 г., Мастер-класс, CamRip]

Сообщение Stepan » 19 сен 2016, 08:40

MBA - Михаил Колонтай - как эффективно анализировать рынок используя матрицу БКГ


Год выпуска: 2008
Страна: Россия
Жанр: Мастер-класс
Продолжительность: 10:31

Рекомендую для психологов, графологов, HR-ов
ГРАФОЛОГИЯ - Тайны почерка (Инесса Гольдберг) 2007-2010 на Телевидении и Радио

Описание:
В этом мастер-классе Михаил Михайлович рассказывает о том как эффективно анализировать рынок используя матрицу БКГ.
Михаил Михайлович — научный руководитель и вдохновитель программы. Он не просто стоял у истоков курса Mini MBA, но и предложил идею данной программы. Новаторская концепция комплексного курса для руководителей среднего и высшего звена была реализована на практике и имеет по настоящий момент огромный успех. Стажировки в европейских и американских бизнес-школах и университетах, включая Гарвардский и Йельский, опыт работы с транснациональными корпорациями, руководство консалтинговой фирмой позволяет передавать свой уникальный опыт участникам обучения. Сфера профессиональных интересов Михаила — стратегический и операционный маркетинг и менеджмент. Ему интересны регионы, знакомство с разными людьми, культурой, в том числе и бизнес-культурой. За динамизм экономической жизни особенно любит Новосибирск, Санкт-Петербург, Ростов-на-Дону и Краснодар. Чутко реагируя на запросы аудитории, он никогда не оставляет проблемы нерешёнными, а вопросы — без ответа. За время преподавания на курсе он завоевал не просто уважение и восхищение — он действительно подвигает каждого на рост, новые задачи и победы.

Сфера профессиональных интересов:
Стратегический и операционный маркетинг
Стратегический менеджмент
Лидерство и управление немотивированным поведением
Управление продажами

Образование:
Белорусский государственный университет
Аспирантура Белорусского государственного института народного хозяйства

Основные публикации:
Автор 40 научных работ
«Инновационный менеджмент»
«Основы маркетинга и менеджмента»
«Обучающееся предпринимательство»
«Русские медведи и белая гвардия».

Научные стажировки/зарубежные деловые поездки:
Dorset Business School (UK), Dortmund University (Germany), Central Connecticut
State University (USA), Turin University (Italy), Columbia Business School
(USA), Йельский университет, Гарвардский университет, Образовательный институт
«Фольсваген» (Германия), CIM (Великобритания).

Качество: CamRip
Формат: AVI
Видео кодек: DivX
Видео битрейт: 550 Kbps
Аудио кодек: MP3
Видео: DivX 5 720x576 25.00fps [Stream 00]
Аудио: MPEG Audio Layer 3 48000Hz stereo 128Kbps [Stream 01]
Format : AVI
Format/Info : Audio Video Interleave
File size : 41.4 MiB
Duration : 10mn 31s
Overall bit rate : 550 Kbps

Video
ID : 0
Format : MPEG-4 Visual
Format settings, BVOP : Yes
Format settings, QPel : No
Format settings, GMC : No warppoints
Format settings, Matrix : Default (H.263)
Muxing mode : Packed bitstream
Codec ID : DX50
Codec ID/Hint : DivX 5
Duration : 10mn 31s
Bit rate : 417 Kbps
Width : 720 pixels
Height : 576 pixels
Display aspect ratio : 5:4
Frame rate : 25.000 fps
Standard : PAL
Resolution : 8 bits
Colorimetry : 4:2:0
Scan type : Progressive
Bits/(Pixel*Frame) : 0.040
Stream size : 31.4 MiB (76%)
Writing library : DivX 5.2.1 (WaffleDay) (UTC 2004-09-08)

Audio
ID : 1
Format : MPEG Audio
Format version : Version 1
Format profile : Layer 3
Codec ID : 55
Codec ID/Hint : MP3
Duration : 10mn 31s
Bit rate mode : Constant
Bit rate : 128 Kbps
Channel(s) : 2 channels
Sampling rate : 48.0 KHz
Stream size : 9.64 MiB (23%)
Alignment : Split accross interleaves
Interleave, duration : 500 ms (12.50 video frames)
Interleave, preload duration : 750 ms



У вас нет необходимых прав для просмотра вложений в этом сообщении.