Бизнес Молодость|Философия масштабного мышления с Михаилом Федоренко ч1.2 [2013, WEBRip, RUS] (Видеоурок)

Открытие, развитие и стратегия введения бизнеса.
Торрент Сидеров Личеров Размер
torrent_5178968.torrent
34 11 981.5 МБ
Аватара пользователя
Stepan
Администратор
Сообщения: 52267
Зарегистрирован: 05 ноя 2011, 20:36

Бизнес Молодость|Философия масштабного мышления с Михаилом Федоренко ч1.2 [2013, WEBRip, RUS] (Видеоурок)

Сообщение Stepan » 19 сен 2016, 08:42

Бизнес Молодость|Философия масштабного мышления с Михаилом Федоренко ч1.2

Тип раздаваемого материала: Видеоурок
Продолжительность: 01:32:36
Год выпуска: 2013
Исполнитель: Михаил Федоренко
Язык: Русский
Перевод: Отсутствует

Качество: WEBRip
Формат: MP4
Видео кодек: MPEG4
Аудио кодек: AAC

Видео кодек: MPEG-4 640x360 25fps 595 Kbps 16:9
Аудио: AAC 48.0 KHz 109 Kbps
Видео кодек: MPEG-4 640x360 25fps 648 Kbps 16:9
Аудио кодек: AAC 48.0 KHz 109 Kbps

Описание: Бизнес Молодость Философия масштабного мышления с Михаилом Федоренко от БМ.
1.Философия масштабного мышления с Михаилом Федоренко. Часть 1 01:32:36
2.Философия масштабного мышления с Михаилом Федоренко. Часть 2 01:34:19
Complete name : Философия масштабного мышления с Михаилом Федоренко. Часть 1.mp4
Format : MPEG-4
Format profile : Base Media / Version 2
Codec ID : mp42 (mp42/mp41/isom/avc1)
File size : 468 MiB
Duration : 1h 32mn
Overall bit rate mode : Variable
Overall bit rate : 707 Kbps
Encoded date : UTC 2013-04-03 16:16:48
Tagged date : UTC 2013-04-03 16:16:48

Video
ID : 1
Format : AVC
Format/Info : Advanced Video Codec
Format profile : High@L3.1
Format settings, CABAC : Yes
Format settings, ReFrames : 4 frames
Codec ID : avc1
Codec ID/Info : Advanced Video Coding
Duration : 1h 32mn
Bit rate : 595 Kbps
Width : 640 pixels
Height : 360 pixels
Display aspect ratio : 16:9
Frame rate mode : Constant
Frame rate : 25.000 fps
Color space : YUV
Chroma subsampling : 4:2:0
Bit depth : 8 bits
Scan type : Progressive
Bits/(Pixel*Frame) : 0.103
Stream size : 393 MiB (84%)
Writing library : x264 core 129 r2245 bc13772
Tagged date : UTC 2013-04-03 16:16:48

Audio
ID : 2
Format : AAC
Format/Info : Advanced Audio Codec
Format profile : LC
Codec ID : 40
Duration : 1h 32mn
Source duration : 1h 32mn
Bit rate mode : Variable
Bit rate : 109 Kbps
Channel(s) : 2 channels
Channel positions : Front: L R
Sampling rate : 48.0 KHz
Frame rate : 46.875 fps (1024 spf)
Compression mode : Lossy
Stream size : 72.4 MiB (15%)
Source stream size : 72.4 MiB (15%)
Encoded date : UTC 2013-04-03 16:16:48
Tagged date : UTC 2013-04-03 16:16:48

Complete name : Философия масштабного мышления с Михаилом Федоренко. Часть 2.mp4
Format : MPEG-4
Format profile : Base Media / Version 2
Codec ID : mp42 (mp42/mp41/isom/avc1)
File size : 513 MiB
Duration : 1h 34mn
Overall bit rate mode : Variable
Overall bit rate : 761 Kbps
Encoded date : UTC 2013-04-03 14:50:36
Tagged date : UTC 2013-04-03 14:50:36

Video
ID : 1
Format : AVC
Format/Info : Advanced Video Codec
Format profile : High@L3.1
Format settings, CABAC : Yes
Format settings, ReFrames : 4 frames
Codec ID : avc1
Codec ID/Info : Advanced Video Coding
Duration : 1h 34mn
Bit rate : 648 Kbps
Width : 640 pixels
Height : 360 pixels
Display aspect ratio : 16:9
Frame rate mode : Constant
Frame rate : 25.000 fps
Color space : YUV
Chroma subsampling : 4:2:0
Bit depth : 8 bits
Scan type : Progressive
Bits/(Pixel*Frame) : 0.112
Stream size : 437 MiB (85%)
Writing library : x264 core 129 r2245 bc13772
Encoded date : UTC 2013-04-03 14:50:36
Tagged date : UTC 2013-04-03 14:50:36

Audio
ID : 2
Format : AAC
Format/Info : Advanced Audio Codec
Format profile : LC
Codec ID : 40
Duration : 1h 34mn
Source duration : 1h 34mn
Bit rate mode : Variable
Bit rate : 109 Kbps
Channel(s) : 2 channels
Channel positions : Front: L R
Sampling rate : 48.0 KHz
Frame rate : 46.875 fps (1024 spf)
Compression mode : Lossy
Stream size : 73.8 MiB (14%)
Source stream size : 73.8 MiB (14%)
Encoded date : UTC 2013-04-03 14:50:36
Tagged date : UTC 2013-04-03 14:50:36
У вас нет необходимых прав для просмотра вложений в этом сообщении.