Презентация книги "Кризис - как это делается" Стариков [2011, Экономика, политика, CAMRip, RUS]

Открытие, развитие и стратегия введения бизнеса.
Торрент Сидеров Личеров Размер
torrent_3686715.torrent
0 0 2.35 ГБ
Аватара пользователя
Stepan
Администратор
Сообщения: 52267
Зарегистрирован: 05 ноя 2011, 20:36

Презентация книги "Кризис - как это делается" Стариков [2011, Экономика, политика, CAMRip, RUS]

Сообщение Stepan » 19 сен 2016, 08:48

Презентация книги "Кризис - как это делается"
Страна: Россия
Тематика: Экономика, политика
Тип раздаваемого материала: Общественная лекция
Продолжительность: 01:28:23
Год выпуска: 2011
Язык: Русский
Перевод: Не требуется

Описание: Презентация книги ««Кризис — как это делается» »
Николай Викторович Стариков

Отвечая на вопросы читателей Стариков затронул большой круг событий, происходящих сейчас в мире, а именно: причины свержения режима Кадафи, ситуация в Египте, Сирии, Йемене и других арабских странах.

Санкт-Петербург
23 марта

"Дом Книги"

Качество: CAMRip
Формат: MP4

Видео: MPEG4 Video (H264) Overall bit rate 3 814 Kbps, 1920x1080 25.00fps [VideoHandler]
Аудио: AAC 44100Hz stereo 127kbps [(C) 2007 Google Inc. v08.13.2007.]
Format : MPEG-4
Format profile : Base Media / Version 2
Codec ID : mp42
File size : 2.35 GiB
Duration : 1h 28mn
Overall bit rate : 3 814 Kbps
Encoded date : UTC 2011-03-23 17:02:31
Tagged date : UTC 2011-03-23 17:02:31
gsst : 0
gstd : 5303560
gssd : B4A7DDA84MH1312966538654876
gshh : v4.cache5.c.youtube.com

Video
ID : 1
Format : AVC
Format/Info : Advanced Video Codec
Format profile : High@L4.0
Format settings, CABAC : Yes
Format settings, ReFrames : 1 frame
Codec ID : avc1
Codec ID/Info : Advanced Video Coding
Duration : 1h 28mn
Bit rate mode : Variable
Bit rate : 3 681 Kbps
Maximum bit rate : 6 561 Kbps
Width : 1 920 pixels
Height : 1 080 pixels
Display aspect ratio : 16:9
Frame rate mode : Constant
Frame rate : 25.000 fps
Color space : YUV
Chroma subsampling : 4:2:0
Bit depth : 8 bits
Scan type : Progressive
Bits/(Pixel*Frame) : 0.071
Stream size : 2.27 GiB (97%)
Tagged date : UTC 2011-03-23 17:15:27

Audio
ID : 2
Format : AAC
Format/Info : Advanced Audio Codec
Format profile : LC
Codec ID : 40
Duration : 1h 28mn
Bit rate mode : Variable
Bit rate : 128 Kbps
Maximum bit rate : 169 Kbps
Channel(s) : 2 channels
Channel positions : Front: L R
Sampling rate : 44.1 KHz
Compression mode : Lossy
Stream size : 80.9 MiB (3%)
Title : (C) 2007 Google Inc. v08.13.2007.
Encoded date : UTC 2011-03-23 17:07:00
Tagged date : UTC 2011-03-23 17:15:27
У вас нет необходимых прав для просмотра вложений в этом сообщении.