[Udemy.com] Alibaba: Узнайте как я заработал 184 000$ за прошлый год / Alibaba: Learn How I Made $184,000 Profit Last Ye

Открытие, развитие и стратегия введения бизнеса.
Торрент Сидеров Личеров Размер
torrent_5148962.torrent
0 0 191.48 МБ
Аватара пользователя
Stepan
Администратор
Сообщения: 52267
Зарегистрирован: 05 ноя 2011, 20:36

[Udemy.com] Alibaba: Узнайте как я заработал 184 000$ за прошлый год / Alibaba: Learn How I Made $184,000 Profit Last Ye

Сообщение Stepan » 19 сен 2016, 08:48

Alibaba: Узнайте как я заработал 184 000$ за прошлый год / Alibaba: Learn How I Made $184,000 Profit Last Year

Страна: США
Тематика: онлайн-продажи
Тип раздаваемого материала: Видеоурок
Продолжительность: 1:23:51
Год выпуска: 2015

Язык: Английский
Перевод: Отсутствует

Описание: Do you want an Instructor who can speak from Experience?
Do you want to learn Exactly how I earned $184,000 Profit Last year buying and importing products on Alibaba and Importing them. Whilst working only about an hour a week?
Do you want to make extra income in order to substitute your job or leave your 9-5?
*******************************************************************************************************
Alibaba is home to the world's largest selection of suppliers that can produce any product that you can possible image from Screen Protectors and Hand Soap upto the newest and wildest Kickstarter project. There is a supplier who is currently making everything or will be willing to make anything.

Хочешь инструктора, который может сказать из своего опыта?
Вы действительно хотите узнать, как именно я заработал $184,000 прибыль за прошлый год покупка и импорт продуктов на alibaba и импорта. Во время работы лишь около часа в неделю?
Вы хотите сделать дополнительный доход для того, чтобы заменить вашу работу или оставить свой 9-5?
*******************************************************************************************************
Алибаба находится самый большой в мире выбор поставщиков, которые могут произвести любой товар, который Вы можете возможно изображения из пленки на экран и руки мыла до новейших и самых смелых проекта Kickstarter. Есть поставщик, который в настоящее время прилагает все или будет готов сделать что угодно.

Доп. информация: курс у производителя: udemy.com/learn-alibaba

Качество: HDRip
Формат: MP4
Видео кодек: H.264
Аудио кодек: AAC
Видео: AVC, 1280x720, 16:9, 30fps
Аудио: AAC, 85kbps, 44.1kHz, stereo
General
Complete name : 01_-_Intro_and_About_My_Alibaba_Experience\01_-_About_my_Earnings.mp4
Format : MPEG-4
Format profile : Base Media
Codec ID : isom (isom/avc1/mp42)
File size : 3.45 MiB
Duration : 2mn 9s
Overall bit rate mode : Variable
Overall bit rate : 224 Kbps
Encoded date : UTC 2015-12-10 09:08:11
Tagged date : UTC 2015-12-10 09:08:11

Video
ID : 1
Format : AVC
Format/Info : Advanced Video Codec
Format profile : Baseline@L3.1
Format settings, CABAC : No
Format settings, ReFrames : 3 frames
Codec ID : avc1
Codec ID/Info : Advanced Video Coding
Duration : 2mn 9s
Bit rate : 135 Kbps
Maximum bit rate : 1 183 Kbps
Width : 1 280 pixels
Height : 720 pixels
Display aspect ratio : 16:9
Frame rate mode : Constant
Frame rate : 30.000 fps
Color space : YUV
Chroma subsampling : 4:2:0
Bit depth : 8 bits
Scan type : Progressive
Bits/(Pixel*Frame) : 0.005
Stream size : 2.07 MiB (60%)
Writing library : Zencoder Video Encoding System
Encoded date : UTC 2015-12-10 09:08:03
Tagged date : UTC 2015-12-10 09:08:11

Audio
ID : 2
Format : AAC
Format/Info : Advanced Audio Codec
Format profile : LC
Codec ID : 40
Duration : 2mn 9s
Bit rate mode : Variable
Bit rate : 86.8 Kbps
Maximum bit rate : 97.6 Kbps
Channel(s) : 2 channels
Channel positions : Front: L R
Sampling rate : 44.1 KHz
Frame rate : 43.066 fps (1024 spf)
Compression mode : Lossy
Stream size : 1.34 MiB (39%)
Encoded date : UTC 2015-12-10 09:08:03
Tagged date : UTC 2015-12-10 09:08:11

General
Complete name : 01_-_Intro_and_About_My_Alibaba_Experience\02_-_Humble_Beginnings.mp4
Format : MPEG-4
Format profile : Base Media
Codec ID : isom (isom/avc1/mp42)
File size : 5.83 MiB
Duration : 2mn 56s
Overall bit rate mode : Variable
Overall bit rate : 278 Kbps
Encoded date : UTC 2015-12-08 09:19:42
Tagged date : UTC 2015-12-08 09:19:42

Video
ID : 1
Format : AVC
Format/Info : Advanced Video Codec
Format profile : Baseline@L3.1
Format settings, CABAC : No
Format settings, ReFrames : 3 frames
Format settings, GOP : M=1, N=50
Codec ID : avc1
Codec ID/Info : Advanced Video Coding
Duration : 2mn 56s
Bit rate : 193 Kbps
Maximum bit rate : 2 311 Kbps
Width : 1 280 pixels
Height : 720 pixels
Display aspect ratio : 16:9
Frame rate mode : Constant
Frame rate : 30.000 fps
Color space : YUV
Chroma subsampling : 4:2:0
Bit depth : 8 bits
Scan type : Progressive
Bits/(Pixel*Frame) : 0.007
Stream size : 4.05 MiB (70%)
Writing library : Zencoder Video Encoding System
Encoded date : UTC 2015-12-08 09:19:22
Tagged date : UTC 2015-12-08 09:19:42

Audio
ID : 2
Format : AAC
Format/Info : Advanced Audio Codec
Format profile : LC
Codec ID : 40
Duration : 2mn 56s
Bit rate mode : Variable
Bit rate : 81.8 Kbps
Maximum bit rate : 96.7 Kbps
Channel(s) : 2 channels
Channel positions : Front: L R
Sampling rate : 44.1 KHz
Frame rate : 43.066 fps (1024 spf)
Compression mode : Lossy
Stream size : 1.72 MiB (29%)
Encoded date : UTC 2015-12-08 09:19:22
Tagged date : UTC 2015-12-08 09:19:42

General
Complete name : 02_-_Getting_Ready_to_Start\05_-_Let_s_Talk_about_Some_Terminology.mp4
Format : MPEG-4
Format profile : Base Media
Codec ID : isom (isom/avc1/mp42)
File size : 5.70 MiB
Duration : 3mn 58s
Overall bit rate mode : Variable
Overall bit rate : 201 Kbps
Encoded date : UTC 2015-12-11 02:12:15
Tagged date : UTC 2015-12-11 02:12:15

Video
ID : 1
Format : AVC
Format/Info : Advanced Video Codec
Format profile : Baseline@L3.1
Format settings, CABAC : No
Format settings, ReFrames : 3 frames
Format settings, GOP : M=1, N=50
Codec ID : avc1
Codec ID/Info : Advanced Video Coding
Duration : 3mn 58s
Bit rate : 115 Kbps
Maximum bit rate : 1 689 Kbps
Width : 1 280 pixels
Height : 720 pixels
Display aspect ratio : 16:9
Frame rate mode : Constant
Frame rate : 30.000 fps
Color space : YUV
Chroma subsampling : 4:2:0
Bit depth : 8 bits
Scan type : Progressive
Bits/(Pixel*Frame) : 0.004
Stream size : 3.27 MiB (57%)
Writing library : Zencoder Video Encoding System
Encoded date : UTC 2015-12-11 02:11:58
Tagged date : UTC 2015-12-11 02:12:15

Audio
ID : 2
Format : AAC
Format/Info : Advanced Audio Codec
Format profile : LC
Codec ID : 40
Duration : 3mn 58s
Bit rate mode : Variable
Bit rate : 82.9 Kbps
Maximum bit rate : 96.7 Kbps
Channel(s) : 2 channels
Channel positions : Front: L R
Sampling rate : 44.1 KHz
Frame rate : 43.066 fps (1024 spf)
Compression mode : Lossy
Stream size : 2.36 MiB (41%)
Encoded date : UTC 2015-12-11 02:11:58
Tagged date : UTC 2015-12-11 02:12:15

General
Complete name : 02_-_Getting_Ready_to_Start\06_-_Registering_Your_Company.mp4
Format : MPEG-4
Format profile : Base Media
Codec ID : isom (isom/avc1/mp42)
File size : 2.98 MiB
Duration : 1mn 52s
Overall bit rate mode : Variable
Overall bit rate : 223 Kbps
Encoded date : UTC 2015-12-08 09:47:43
Tagged date : UTC 2015-12-08 09:47:43

Video
ID : 1
Format : AVC
Format/Info : Advanced Video Codec
Format profile : Baseline@L3.1
Format settings, CABAC : No
Format settings, ReFrames : 3 frames
Format settings, GOP : M=1, N=50
Codec ID : avc1
Codec ID/Info : Advanced Video Coding
Duration : 1mn 51s
Bit rate : 139 Kbps
Maximum bit rate : 1 551 Kbps
Width : 1 280 pixels
Height : 720 pixels
Display aspect ratio : 16:9
Frame rate mode : Constant
Frame rate : 30.000 fps
Color space : YUV
Chroma subsampling : 4:2:0
Bit depth : 8 bits
Scan type : Progressive
Bits/(Pixel*Frame) : 0.005
Stream size : 1.86 MiB (62%)
Writing library : Zencoder Video Encoding System
Encoded date : UTC 2015-12-08 09:47:36
Tagged date : UTC 2015-12-08 09:47:43

Audio
ID : 2
Format : AAC
Format/Info : Advanced Audio Codec
Format profile : LC
Codec ID : 40
Duration : 1mn 52s
Bit rate mode : Variable
Bit rate : 81.5 Kbps
Maximum bit rate : 99.2 Kbps
Channel(s) : 2 channels
Channel positions : Front: L R
Sampling rate : 44.1 KHz
Frame rate : 43.066 fps (1024 spf)
Compression mode : Lossy
Stream size : 1.09 MiB (37%)
Encoded date : UTC 2015-12-08 09:47:36
Tagged date : UTC 2015-12-08 09:47:43

General
Complete name : 02_-_Getting_Ready_to_Start\07_-_Why_you_Should_Form_a_Limited_Liability_Corporation.mp4
Format : MPEG-4
Format profile : Base Media
Codec ID : isom (isom/avc1/mp42)
File size : 5.59 MiB
Duration : 3mn 52s
Overall bit rate mode : Variable
Overall bit rate : 202 Kbps
Encoded date : UTC 2015-12-11 02:10:01
Tagged date : UTC 2015-12-11 02:10:01

Video
ID : 1
Format : AVC
Format/Info : Advanced Video Codec
Format profile : Baseline@L3.1
Format settings, CABAC : No
Format settings, ReFrames : 3 frames
Format settings, GOP : M=1, N=50
Codec ID : avc1
Codec ID/Info : Advanced Video Coding
Duration : 3mn 52s
Bit rate : 114 Kbps
Maximum bit rate : 1 742 Kbps
Width : 1 280 pixels
Height : 720 pixels
Display aspect ratio : 16:9
Frame rate mode : Constant
Frame rate : 30.000 fps
Color space : YUV
Chroma subsampling : 4:2:0
Bit depth : 8 bits
Scan type : Progressive
Bits/(Pixel*Frame) : 0.004
Stream size : 3.16 MiB (56%)
Writing library : Zencoder Video Encoding System
Encoded date : UTC 2015-12-11 02:09:21
Tagged date : UTC 2015-12-11 02:10:01

Audio
ID : 2
Format : AAC
Format/Info : Advanced Audio Codec
Format profile : LC
Codec ID : 40
Duration : 3mn 52s
Bit rate mode : Variable
Bit rate : 85.2 Kbps
Maximum bit rate : 97.4 Kbps
Channel(s) : 2 channels
Channel positions : Front: L R
Sampling rate : 44.1 KHz
Frame rate : 43.066 fps (1024 spf)
Compression mode : Lossy
Stream size : 2.36 MiB (42%)
Encoded date : UTC 2015-12-11 02:09:21
Tagged date : UTC 2015-12-11 02:10:01

General
Complete name : 02_-_Getting_Ready_to_Start\08_-_Getting_an_Address_or_Phone_Number_if_You_Don_t_want_to_Use_Yours.mp4
Format : MPEG-4
Format profile : Base Media
Codec ID : isom (isom/avc1/mp42)
File size : 2.23 MiB
Duration : 2mn 2s
Overall bit rate mode : Variable
Overall bit rate : 153 Kbps
Encoded date : UTC 2015-12-11 02:56:32
Tagged date : UTC 2015-12-11 02:56:32

Video
ID : 1
Format : AVC
Format/Info : Advanced Video Codec
Format profile : Baseline@L3
Format settings, CABAC : No
Format settings, ReFrames : 3 frames
Format settings, GOP : M=1, N=50
Codec ID : avc1
Codec ID/Info : Advanced Video Coding
Duration : 2mn 2s
Bit rate : 65.2 Kbps
Maximum bit rate : 380 Kbps
Width : 640 pixels
Height : 360 pixels
Display aspect ratio : 16:9
Frame rate mode : Constant
Frame rate : 30.000 fps
Color space : YUV
Chroma subsampling : 4:2:0
Bit depth : 8 bits
Scan type : Progressive
Bits/(Pixel*Frame) : 0.009
Stream size : 972 KiB (43%)
Writing library : Zencoder Video Encoding System
Encoded date : UTC 2015-12-11 02:56:23
Tagged date : UTC 2015-12-11 02:56:32

Audio
ID : 2
Format : AAC
Format/Info : Advanced Audio Codec
Format profile : LC
Codec ID : 40
Duration : 2mn 2s
Bit rate mode : Variable
Bit rate : 85.0 Kbps
Maximum bit rate : 96.3 Kbps
Channel(s) : 2 channels
Channel positions : Front: L R
Sampling rate : 44.1 KHz
Frame rate : 43.066 fps (1024 spf)
Compression mode : Lossy
Stream size : 1.24 MiB (56%)
Encoded date : UTC 2015-12-11 02:56:23
Tagged date : UTC 2015-12-11 02:56:32

General
Complete name : 02_-_Getting_Ready_to_Start\09_-_How_to_Get_a_Professional_Email_and_why_Gmail_etc_Will_not_Do.mp4
Format : MPEG-4
Format profile : Base Media
Codec ID : isom (isom/avc1/mp42)
File size : 5.39 MiB
Duration : 3mn 17s
Overall bit rate mode : Variable
Overall bit rate : 229 Kbps
Encoded date : UTC 2015-12-08 10:29:12
Tagged date : UTC 2015-12-08 10:29:12

Video
ID : 1
Format : AVC
Format/Info : Advanced Video Codec
Format profile : Baseline@L3.1
Format settings, CABAC : No
Format settings, ReFrames : 3 frames
Format settings, GOP : M=1, N=50
Codec ID : avc1
Codec ID/Info : Advanced Video Coding
Duration : 3mn 17s
Bit rate : 148 Kbps
Maximum bit rate : 2 023 Kbps
Width : 1 280 pixels
Height : 720 pixels
Display aspect ratio : 16:9
Frame rate mode : Constant
Frame rate : 30.000 fps
Color space : YUV
Chroma subsampling : 4:2:0
Bit depth : 8 bits
Scan type : Progressive
Bits/(Pixel*Frame) : 0.005
Stream size : 3.49 MiB (65%)
Writing library : Zencoder Video Encoding System
Encoded date : UTC 2015-12-08 10:28:55
Tagged date : UTC 2015-12-08 10:29:12

Audio
ID : 2
Format : AAC
Format/Info : Advanced Audio Codec
Format profile : LC
Codec ID : 40
Duration : 3mn 17s
Bit rate mode : Variable
Bit rate : 78.1 Kbps
Maximum bit rate : 97.4 Kbps
Channel(s) : 2 channels
Channel positions : Front: L R
Sampling rate : 44.1 KHz
Frame rate : 43.066 fps (1024 spf)
Compression mode : Lossy
Stream size : 1.84 MiB (34%)
Encoded date : UTC 2015-12-08 10:28:55
Tagged date : UTC 2015-12-08 10:29:12

General
Complete name : 02_-_Getting_Ready_to_Start\10_-_Getting_a_Bank_Account_that_Is_up_To_the_Task_Receive_a_25_Bonus_.mp4
Format : MPEG-4
Format profile : Base Media
Codec ID : isom (isom/avc1/mp42)
File size : 2.29 MiB
Duration : 1mn 59s
Overall bit rate mode : Variable
Overall bit rate : 161 Kbps
Encoded date : UTC 2015-12-08 10:55:30
Tagged date : UTC 2015-12-08 10:55:30

Video
ID : 1
Format : AVC
Format/Info : Advanced Video Codec
Format profile : Baseline@L3
Format settings, CABAC : No
Format settings, ReFrames : 3 frames
Format settings, GOP : M=1, N=50
Codec ID : avc1
Codec ID/Info : Advanced Video Coding
Duration : 1mn 59s
Bit rate : 76.1 Kbps
Maximum bit rate : 705 Kbps
Width : 640 pixels
Height : 360 pixels
Display aspect ratio : 16:9
Frame rate mode : Constant
Frame rate : 30.000 fps
Color space : YUV
Chroma subsampling : 4:2:0
Bit depth : 8 bits
Scan type : Progressive
Bits/(Pixel*Frame) : 0.011
Stream size : 1.09 MiB (47%)
Writing library : Zencoder Video Encoding System
Encoded date : UTC 2015-12-08 10:55:20
Tagged date : UTC 2015-12-08 10:55:30

Audio
ID : 2
Format : AAC
Format/Info : Advanced Audio Codec
Format profile : LC
Codec ID : 40
Duration : 1mn 59s
Bit rate mode : Variable
Bit rate : 82.0 Kbps
Maximum bit rate : 95.1 Kbps
Channel(s) : 2 channels
Channel positions : Front: L R
Sampling rate : 44.1 KHz
Frame rate : 43.066 fps (1024 spf)
Compression mode : Lossy
Stream size : 1.17 MiB (51%)
Encoded date : UTC 2015-12-08 10:55:20
Tagged date : UTC 2015-12-08 10:55:30

General
Complete name : 02_-_Getting_Ready_to_Start\11_-_Avoiding_The_Scammers.mp4
Format : MPEG-4
Format profile : Base Media
Codec ID : isom (isom/avc1/mp42)
File size : 12.3 MiB
Duration : 3mn 24s
Overall bit rate mode : Variable
Overall bit rate : 503 Kbps
Encoded date : UTC 2015-12-09 07:48:32
Tagged date : UTC 2015-12-09 07:48:32

Video
ID : 1
Format : AVC
Format/Info : Advanced Video Codec
Format profile : Baseline@L3.2
Format settings, CABAC : No
Format settings, ReFrames : 3 frames
Format settings, GOP : M=1, N=50
Codec ID : avc1
Codec ID/Info : Advanced Video Coding
Duration : 3mn 24s
Bit rate : 412 Kbps
Maximum bit rate : 986 Kbps
Width : 1 350 pixels
Height : 720 pixels
Display aspect ratio : 1.85:1
Frame rate mode : Constant
Frame rate : 30.000 fps
Color space : YUV
Chroma subsampling : 4:2:0
Bit depth : 8 bits
Scan type : Progressive
Bits/(Pixel*Frame) : 0.014
Stream size : 10.0 MiB (82%)
Writing library : Zencoder Video Encoding System
Encoded date : UTC 2015-12-09 07:48:20
Tagged date : UTC 2015-12-09 07:48:33

Audio
ID : 2
Format : AAC
Format/Info : Advanced Audio Codec
Format profile : LC
Codec ID : 40
Duration : 3mn 24s
Bit rate mode : Variable
Bit rate : 88.2 Kbps
Maximum bit rate : 99.1 Kbps
Channel(s) : 2 channels
Channel positions : Front: L R
Sampling rate : 44.1 KHz
Frame rate : 43.066 fps (1024 spf)
Compression mode : Lossy
Stream size : 2.15 MiB (18%)
Encoded date : UTC 2015-12-09 07:48:20
Tagged date : UTC 2015-12-09 07:48:33

General
Complete name : 02_-_Getting_Ready_to_Start\13_-_Vetting_Suppliers.mp4
Format : MPEG-4
Format profile : Base Media
Codec ID : isom (isom/avc1/mp42)
File size : 22.9 MiB
Duration : 4mn 24s
Overall bit rate mode : Variable
Overall bit rate : 726 Kbps
Encoded date : UTC 2015-12-09 07:45:58
Tagged date : UTC 2015-12-09 07:45:58

Video
ID : 1
Format : AVC
Format/Info : Advanced Video Codec
Format profile : Baseline@L3.2
Format settings, CABAC : No
Format settings, ReFrames : 3 frames
Format settings, GOP : M=1, N=50
Codec ID : avc1
Codec ID/Info : Advanced Video Coding
Duration : 4mn 24s
Bit rate : 638 Kbps
Maximum bit rate : 3 378 Kbps
Width : 1 350 pixels
Height : 720 pixels
Display aspect ratio : 1.85:1
Frame rate mode : Constant
Frame rate : 30.000 fps
Color space : YUV
Chroma subsampling : 4:2:0
Bit depth : 8 bits
Scan type : Progressive
Bits/(Pixel*Frame) : 0.022
Stream size : 20.1 MiB (88%)
Writing library : Zencoder Video Encoding System
Encoded date : UTC 2015-12-09 07:45:36
Tagged date : UTC 2015-12-09 07:45:58

Audio
ID : 2
Format : AAC
Format/Info : Advanced Audio Codec
Format profile : LC
Codec ID : 40
Duration : 4mn 24s
Bit rate mode : Variable
Bit rate : 86.0 Kbps
Maximum bit rate : 99.4 Kbps
Channel(s) : 2 channels
Channel positions : Front: L R
Sampling rate : 44.1 KHz
Frame rate : 43.066 fps (1024 spf)
Compression mode : Lossy
Stream size : 2.71 MiB (12%)
Encoded date : UTC 2015-12-09 07:45:36
Tagged date : UTC 2015-12-09 07:45:58

General
Complete name : 02_-_Getting_Ready_to_Start\14_-_Chinese_Culture_and_Why_You_Must_Know_This_Basic_Knowledge.mp4
Format : MPEG-4
Format profile : Base Media
Codec ID : isom (isom/avc1/mp42)
File size : 5.95 MiB
Duration : 3mn 28s
Overall bit rate mode : Variable
Overall bit rate : 240 Kbps
Encoded date : UTC 2015-12-11 05:07:05
Tagged date : UTC 2015-12-11 05:07:05

Video
ID : 1
Format : AVC
Format/Info : Advanced Video Codec
Format profile : Baseline@L3.1
Format settings, CABAC : No
Format settings, ReFrames : 3 frames
Format settings, GOP : M=1, N=50
Codec ID : avc1
Codec ID/Info : Advanced Video Coding
Duration : 3mn 27s
Bit rate : 143 Kbps
Maximum bit rate : 1 982 Kbps
Width : 1 280 pixels
Height : 720 pixels
Display aspect ratio : 16:9
Frame rate mode : Constant
Frame rate : 30.000 fps
Color space : YUV
Chroma subsampling : 4:2:0
Bit depth : 8 bits
Scan type : Progressive
Bits/(Pixel*Frame) : 0.005
Stream size : 3.55 MiB (60%)
Writing library : Zencoder Video Encoding System
Encoded date : UTC 2015-12-11 05:06:50
Tagged date : UTC 2015-12-11 05:07:05

Audio
ID : 2
Format : AAC
Format/Info : Advanced Audio Codec
Format profile : LC
Codec ID : 40
Duration : 3mn 28s
Bit rate mode : Variable
Bit rate : 96.0 Kbps
Maximum bit rate : 109 Kbps
Channel(s) : 2 channels
Channel positions : Front: L R
Sampling rate : 44.1 KHz
Frame rate : 43.066 fps (1024 spf)
Compression mode : Lossy
Stream size : 2.34 MiB (39%)
Encoded date : UTC 2015-12-11 05:06:50
Tagged date : UTC 2015-12-11 05:07:05

General
Complete name : 03_-_Deciding_what_to_Sell\16_-_Traits_of_a_Good_Product.mp4
Format : MPEG-4
Format profile : Base Media
Codec ID : isom (isom/avc1/mp42)
File size : 5.54 MiB
Duration : 4mn 41s
Overall bit rate mode : Variable
Overall bit rate : 165 Kbps
Encoded date : UTC 2015-12-11 03:05:08
Tagged date : UTC 2015-12-11 03:05:08

Video
ID : 1
Format : AVC
Format/Info : Advanced Video Codec
Format profile : Baseline@L3.1
Format settings, CABAC : No
Format settings, ReFrames : 3 frames
Codec ID : avc1
Codec ID/Info : Advanced Video Coding
Duration : 4mn 41s
Bit rate : 76.5 Kbps
Maximum bit rate : 888 Kbps
Width : 1 280 pixels
Height : 720 pixels
Display aspect ratio : 16:9
Frame rate mode : Constant
Frame rate : 30.000 fps
Color space : YUV
Chroma subsampling : 4:2:0
Bit depth : 8 bits
Scan type : Progressive
Bits/(Pixel*Frame) : 0.003
Stream size : 2.56 MiB (46%)
Writing library : Zencoder Video Encoding System
Encoded date : UTC 2015-12-11 03:04:42
Tagged date : UTC 2015-12-11 03:05:08

Audio
ID : 2
Format : AAC
Format/Info : Advanced Audio Codec
Format profile : LC
Codec ID : 40
Duration : 4mn 41s
Bit rate mode : Variable
Bit rate : 86.1 Kbps
Maximum bit rate : 97.1 Kbps
Channel(s) : 2 channels
Channel positions : Front: L R
Sampling rate : 44.1 KHz
Frame rate : 43.066 fps (1024 spf)
Compression mode : Lossy
Stream size : 2.89 MiB (52%)
Encoded date : UTC 2015-12-11 03:04:42
Tagged date : UTC 2015-12-11 03:05:08

General
Complete name : 03_-_Deciding_what_to_Sell\18_-_Methods_You_Can_Use_To_Decide_on_What_to_Selling_using_Amazon..mp4
Format : MPEG-4
Format profile : Base Media
Codec ID : isom (isom/avc1/mp42)
File size : 15.6 MiB
Duration : 2mn 40s
Overall bit rate mode : Variable
Overall bit rate : 816 Kbps
Encoded date : UTC 2015-12-11 13:37:18
Tagged date : UTC 2015-12-11 13:37:18

Video
ID : 1
Format : AVC
Format/Info : Advanced Video Codec
Format profile : Baseline@L3.2
Format settings, CABAC : No
Format settings, ReFrames : 3 frames
Codec ID : avc1
Codec ID/Info : Advanced Video Coding
Duration : 2mn 40s
Bit rate : 736 Kbps
Maximum bit rate : 3 271 Kbps
Width : 1 344 pixels
Height : 720 pixels
Display aspect ratio : 1.85:1
Frame rate mode : Constant
Frame rate : 30.000 fps
Color space : YUV
Chroma subsampling : 4:2:0
Bit depth : 8 bits
Scan type : Progressive
Bits/(Pixel*Frame) : 0.025
Stream size : 14.1 MiB (90%)
Writing library : Zencoder Video Encoding System
Encoded date : UTC 2015-12-11 13:36:55
Tagged date : UTC 2015-12-11 13:37:19

Audio
ID : 2
Format : AAC
Format/Info : Advanced Audio Codec
Format profile : LC
Codec ID : 40
Duration : 2mn 40s
Bit rate mode : Variable
Bit rate : 78.1 Kbps
Maximum bit rate : 97.4 Kbps
Channel(s) : 2 channels
Channel positions : Front: L R
Sampling rate : 44.1 KHz
Frame rate : 43.066 fps (1024 spf)
Compression mode : Lossy
Stream size : 1.50 MiB (10%)
Encoded date : UTC 2015-12-11 13:36:55
Tagged date : UTC 2015-12-11 13:37:19

General
Complete name : 04_-_Good_Product_to_Look_Into_Importing\19_-_Product_1.mp4
Format : MPEG-4
Format profile : Base Media
Codec ID : isom (isom/avc1/mp42)
File size : 2.18 MiB
Duration : 1mn 8s
Overall bit rate mode : Variable
Overall bit rate : 268 Kbps
Encoded date : UTC 2015-12-11 01:24:20
Tagged date : UTC 2015-12-11 01:24:20

Video
ID : 1
Format : AVC
Format/Info : Advanced Video Codec
Format profile : Baseline@L3
Format settings, CABAC : No
Format settings, ReFrames : 3 frames
Format settings, GOP : M=1, N=50
Codec ID : avc1
Codec ID/Info : Advanced Video Coding
Duration : 1mn 8s
Bit rate : 183 Kbps
Maximum bit rate : 1 072 Kbps
Width : 640 pixels
Height : 360 pixels
Display aspect ratio : 16:9
Frame rate mode : Constant
Frame rate : 30.000 fps
Color space : YUV
Chroma subsampling : 4:2:0
Bit depth : 8 bits
Scan type : Progressive
Bits/(Pixel*Frame) : 0.026
Stream size : 1.49 MiB (68%)
Writing library : Zencoder Video Encoding System
Encoded date : UTC 2015-12-11 01:24:12
Tagged date : UTC 2015-12-11 01:24:20

Audio
ID : 2
Format : AAC
Format/Info : Advanced Audio Codec
Format profile : LC
Codec ID : 40
Duration : 1mn 8s
Bit rate mode : Variable
Bit rate : 82.4 Kbps
Maximum bit rate : 96.0 Kbps
Channel(s) : 2 channels
Channel positions : Front: L R
Sampling rate : 44.1 KHz
Frame rate : 43.066 fps (1024 spf)
Compression mode : Lossy
Stream size : 687 KiB (31%)
Encoded date : UTC 2015-12-11 01:24:12
Tagged date : UTC 2015-12-11 01:24:20

General
Complete name : 04_-_Good_Product_to_Look_Into_Importing\20_-_Product_2.mp4
Format : MPEG-4
Format profile : Base Media
Codec ID : isom (isom/avc1/mp42)
File size : 2.72 MiB
Duration : 1mn 10s
Overall bit rate mode : Variable
Overall bit rate : 322 Kbps
Encoded date : UTC 2015-12-11 01:30:22
Tagged date : UTC 2015-12-11 01:30:22

Video
ID : 1
Format : AVC
Format/Info : Advanced Video Codec
Format profile : Baseline@L3.1
Format settings, CABAC : No
Format settings, ReFrames : 3 frames
Codec ID : avc1
Codec ID/Info : Advanced Video Coding
Duration : 1mn 10s
Bit rate : 239 Kbps
Maximum bit rate : 1 526 Kbps
Width : 1 280 pixels
Height : 720 pixels
Display aspect ratio : 16:9
Frame rate mode : Constant
Frame rate : 30.000 fps
Color space : YUV
Chroma subsampling : 4:2:0
Bit depth : 8 bits
Scan type : Progressive
Bits/(Pixel*Frame) : 0.009
Stream size : 2.01 MiB (74%)
Writing library : Zencoder Video Encoding System
Encoded date : UTC 2015-12-11 01:30:13
Tagged date : UTC 2015-12-11 01:30:22

Audio
ID : 2
Format : AAC
Format/Info : Advanced Audio Codec
Format profile : LC
Codec ID : 40
Duration : 1mn 10s
Bit rate mode : Variable
Bit rate : 81.3 Kbps
Maximum bit rate : 94.9 Kbps
Channel(s) : 2 channels
Channel positions : Front: L R
Sampling rate : 44.1 KHz
Frame rate : 43.066 fps (1024 spf)
Compression mode : Lossy
Stream size : 704 KiB (25%)
Encoded date : UTC 2015-12-11 01:30:12
Tagged date : UTC 2015-12-11 01:30:22

General
Complete name : 04_-_Good_Product_to_Look_Into_Importing\21_-_Product_3.mp4
Format : MPEG-4
Format profile : Base Media
Codec ID : isom (isom/avc1/mp42)
File size : 4.42 MiB
Duration : 1mn 40s
Overall bit rate mode : Variable
Overall bit rate : 368 Kbps
Encoded date : UTC 2015-12-11 01:28:48
Tagged date : UTC 2015-12-11 01:28:48

Video
ID : 1
Format : AVC
Format/Info : Advanced Video Codec
Format profile : Baseline@L3.1
Format settings, CABAC : No
Format settings, ReFrames : 3 frames
Codec ID : avc1
Codec ID/Info : Advanced Video Coding
Duration : 1mn 40s
Bit rate : 283 Kbps
Maximum bit rate : 2 295 Kbps
Width : 1 280 pixels
Height : 720 pixels
Display aspect ratio : 16:9
Frame rate mode : Constant
Frame rate : 30.000 fps
Color space : YUV
Chroma subsampling : 4:2:0
Bit depth : 8 bits
Scan type : Progressive
Bits/(Pixel*Frame) : 0.010
Stream size : 3.39 MiB (77%)
Writing library : Zencoder Video Encoding System
Encoded date : UTC 2015-12-11 01:28:30
Tagged date : UTC 2015-12-11 01:28:48

Audio
ID : 2
Format : AAC
Format/Info : Advanced Audio Codec
Format profile : LC
Codec ID : 40
Duration : 1mn 40s
Bit rate mode : Variable
Bit rate : 82.9 Kbps
Maximum bit rate : 94.8 Kbps
Channel(s) : 2 channels
Channel positions : Front: L R
Sampling rate : 44.1 KHz
Frame rate : 43.066 fps (1024 spf)
Compression mode : Lossy
Stream size : 1 020 KiB (23%)
Encoded date : UTC 2015-12-11 01:28:30
Tagged date : UTC 2015-12-11 01:28:48

General
Complete name : 04_-_Good_Product_to_Look_Into_Importing\22_-_Product_4.mp4
Format : MPEG-4
Format profile : Base Media
Codec ID : isom (isom/avc1/mp42)
File size : 3.61 MiB
Duration : 1mn 33s
Overall bit rate mode : Variable
Overall bit rate : 324 Kbps
Encoded date : UTC 2015-12-11 01:27:52
Tagged date : UTC 2015-12-11 01:27:52

Video
ID : 1
Format : AVC
Format/Info : Advanced Video Codec
Format profile : Baseline@L3.1
Format settings, CABAC : No
Format settings, ReFrames : 3 frames
Codec ID : avc1
Codec ID/Info : Advanced Video Coding
Duration : 1mn 33s
Bit rate : 239 Kbps
Maximum bit rate : 1 893 Kbps
Width : 1 280 pixels
Height : 720 pixels
Display aspect ratio : 16:9
Frame rate mode : Constant
Frame rate : 30.000 fps
Color space : YUV
Chroma subsampling : 4:2:0
Bit depth : 8 bits
Scan type : Progressive
Bits/(Pixel*Frame) : 0.009
Stream size : 2.66 MiB (74%)
Writing library : Zencoder Video Encoding System
Encoded date : UTC 2015-12-11 01:27:44
Tagged date : UTC 2015-12-11 01:27:52

Audio
ID : 2
Format : AAC
Format/Info : Advanced Audio Codec
Format profile : LC
Codec ID : 40
Duration : 1mn 33s
Bit rate mode : Variable
Bit rate : 82.1 Kbps
Maximum bit rate : 95.7 Kbps
Channel(s) : 2 channels
Channel positions : Front: L R
Sampling rate : 44.1 KHz
Frame rate : 43.066 fps (1024 spf)
Compression mode : Lossy
Stream size : 937 KiB (25%)
Encoded date : UTC 2015-12-11 01:27:44
Tagged date : UTC 2015-12-11 01:27:52

General
Complete name : 04_-_Good_Product_to_Look_Into_Importing\23_-_Product_5.mp4
Format : MPEG-4
Format profile : Base Media
Codec ID : isom (isom/avc1/mp42)
File size : 3.67 MiB
Duration : 1mn 50s
Overall bit rate mode : Variable
Overall bit rate : 279 Kbps
Encoded date : UTC 2015-12-11 01:29:11
Tagged date : UTC 2015-12-11 01:29:11

Video
ID : 1
Format : AVC
Format/Info : Advanced Video Codec
Format profile : Baseline@L3.1
Format settings, CABAC : No
Format settings, ReFrames : 3 frames
Codec ID : avc1
Codec ID/Info : Advanced Video Coding
Duration : 1mn 50s
Bit rate : 193 Kbps
Maximum bit rate : 1 744 Kbps
Width : 1 280 pixels
Height : 720 pixels
Display aspect ratio : 16:9
Frame rate mode : Constant
Frame rate : 30.000 fps
Color space : YUV
Chroma subsampling : 4:2:0
Bit depth : 8 bits
Scan type : Progressive
Bits/(Pixel*Frame) : 0.007
Stream size : 2.54 MiB (69%)
Writing library : Zencoder Video Encoding System
Encoded date : UTC 2015-12-11 01:28:52
Tagged date : UTC 2015-12-11 01:29:11

Audio
ID : 2
Format : AAC
Format/Info : Advanced Audio Codec
Format profile : LC
Codec ID : 40
Duration : 1mn 50s
Bit rate mode : Variable
Bit rate : 83.5 Kbps
Maximum bit rate : 96.9 Kbps
Channel(s) : 2 channels
Channel positions : Front: L R
Sampling rate : 44.1 KHz
Frame rate : 43.066 fps (1024 spf)
Compression mode : Lossy
Stream size : 1.10 MiB (30%)
Encoded date : UTC 2015-12-11 01:28:52
Tagged date : UTC 2015-12-11 01:29:11

General
Complete name : 04_-_Good_Product_to_Look_Into_Importing\24_-_Product_6.mp4
Format : MPEG-4
Format profile : Base Media
Codec ID : isom (isom/avc1/mp42)
File size : 3.26 MiB
Duration : 1mn 44s
Overall bit rate mode : Variable
Overall bit rate : 261 Kbps
Encoded date : UTC 2015-12-11 01:29:00
Tagged date : UTC 2015-12-11 01:29:00

Video
ID : 1
Format : AVC
Format/Info : Advanced Video Codec
Format profile : Baseline@L3.1
Format settings, CABAC : No
Format settings, ReFrames : 3 frames
Codec ID : avc1
Codec ID/Info : Advanced Video Coding
Duration : 1mn 44s
Bit rate : 176 Kbps
Maximum bit rate : 1 092 Kbps
Width : 1 280 pixels
Height : 720 pixels
Display aspect ratio : 16:9
Frame rate mode : Constant
Frame rate : 30.000 fps
Color space : YUV
Chroma subsampling : 4:2:0
Bit depth : 8 bits
Scan type : Progressive
Bits/(Pixel*Frame) : 0.006
Stream size : 2.20 MiB (67%)
Writing library : Zencoder Video Encoding System
Encoded date : UTC 2015-12-11 01:28:41
Tagged date : UTC 2015-12-11 01:29:01

Audio
ID : 2
Format : AAC
Format/Info : Advanced Audio Codec
Format profile : LC
Codec ID : 40
Duration : 1mn 44s
Bit rate mode : Variable
Bit rate : 82.7 Kbps
Maximum bit rate : 97.0 Kbps
Channel(s) : 2 channels
Channel positions : Front: L R
Sampling rate : 44.1 KHz
Frame rate : 43.066 fps (1024 spf)
Compression mode : Lossy
Stream size : 1.03 MiB (32%)
Encoded date : UTC 2015-12-11 01:28:41
Tagged date : UTC 2015-12-11 01:29:01

General
Complete name : 04_-_Good_Product_to_Look_Into_Importing\25_-_Product_7.mp4
Format : MPEG-4
Format profile : Base Media
Codec ID : isom (isom/avc1/mp42)
File size : 5.03 MiB
Duration : 2mn 43s
Overall bit rate mode : Variable
Overall bit rate : 258 Kbps
Encoded date : UTC 2015-12-11 01:30:41
Tagged date : UTC 2015-12-11 01:30:41

Video
ID : 1
Format : AVC
Format/Info : Advanced Video Codec
Format profile : Baseline@L3.1
Format settings, CABAC : No
Format settings, ReFrames : 3 frames
Format settings, GOP : M=1, N=50
Codec ID : avc1
Codec ID/Info : Advanced Video Coding
Duration : 2mn 43s
Bit rate : 171 Kbps
Maximum bit rate : 1 387 Kbps
Width : 1 280 pixels
Height : 720 pixels
Display aspect ratio : 16:9
Frame rate mode : Constant
Frame rate : 30.000 fps
Color space : YUV
Chroma subsampling : 4:2:0
Bit depth : 8 bits
Scan type : Progressive
Bits/(Pixel*Frame) : 0.006
Stream size : 3.33 MiB (66%)
Writing library : Zencoder Video Encoding System
Encoded date : UTC 2015-12-11 01:30:20
Tagged date : UTC 2015-12-11 01:30:41

Audio
ID : 2
Format : AAC
Format/Info : Advanced Audio Codec
Format profile : LC
Codec ID : 40
Duration : 2mn 43s
Bit rate mode : Variable
Bit rate : 84.6 Kbps
Maximum bit rate : 98.5 Kbps
Channel(s) : 2 channels
Channel positions : Front: L R
Sampling rate : 44.1 KHz
Frame rate : 43.066 fps (1024 spf)
Compression mode : Lossy
Stream size : 1.65 MiB (33%)
Encoded date : UTC 2015-12-11 01:30:20
Tagged date : UTC 2015-12-11 01:30:41

General
Complete name : 05_-_Duties_and_Taxes\26_-_What_are_Duties.mp4
Format : MPEG-4
Format profile : Base Media
Codec ID : isom (isom/avc1/mp42)
File size : 2.14 MiB
Duration : 1mn 23s
Overall bit rate mode : Variable
Overall bit rate : 214 Kbps
Encoded date : UTC 2015-12-12 12:25:38
Tagged date : UTC 2015-12-12 12:25:38

Video
ID : 1
Format : AVC
Format/Info : Advanced Video Codec
Format profile : Baseline@L3.1
Format settings, CABAC : No
Format settings, ReFrames : 3 frames
Format settings, GOP : M=1, N=50
Codec ID : avc1
Codec ID/Info : Advanced Video Coding
Duration : 1mn 23s
Bit rate : 130 Kbps
Maximum bit rate : 894 Kbps
Width : 1 280 pixels
Height : 720 pixels
Display aspect ratio : 16:9
Frame rate mode : Constant
Frame rate : 30.000 fps
Color space : YUV
Chroma subsampling : 4:2:0
Bit depth : 8 bits
Scan type : Progressive
Bits/(Pixel*Frame) : 0.005
Stream size : 1.29 MiB (60%)
Writing library : Zencoder Video Encoding System
Encoded date : UTC 2015-12-12 12:25:29
Tagged date : UTC 2015-12-12 12:25:38

Audio
ID : 2
Format : AAC
Format/Info : Advanced Audio Codec
Format profile : LC
Codec ID : 40
Duration : 1mn 23s
Bit rate mode : Variable
Bit rate : 82.2 Kbps
Maximum bit rate : 98.1 Kbps
Channel(s) : 2 channels
Channel positions : Front: L R
Sampling rate : 44.1 KHz
Frame rate : 43.066 fps (1024 spf)
Compression mode : Lossy
Stream size : 841 KiB (38%)
Encoded date : UTC 2015-12-12 12:25:29
Tagged date : UTC 2015-12-12 12:25:38

General
Complete name : 06_-_Contacting_Suppliers\28_-_Templates_Attached_to_This_Lecture_Download_and_Use_Them..mp4
Format : MPEG-4
Format profile : Base Media
Codec ID : isom (isom/avc1/mp42)
File size : 1.34 MiB
Duration : 1mn 1s
Overall bit rate mode : Variable
Overall bit rate : 184 Kbps
Encoded date : UTC 2015-12-09 08:46:09
Tagged date : UTC 2015-12-09 08:46:09

Video
ID : 1
Format : AVC
Format/Info : Advanced Video Codec
Format profile : Baseline@L3.2
Format settings, CABAC : No
Format settings, ReFrames : 3 frames
Format settings, GOP : M=1, N=50
Codec ID : avc1
Codec ID/Info : Advanced Video Coding
Duration : 1mn 1s
Bit rate : 101 Kbps
Maximum bit rate : 165 Kbps
Width : 1 350 pixels
Height : 720 pixels
Display aspect ratio : 1.85:1
Frame rate mode : Constant
Frame rate : 30.000 fps
Color space : YUV
Chroma subsampling : 4:2:0
Bit depth : 8 bits
Scan type : Progressive
Bits/(Pixel*Frame) : 0.003
Stream size : 749 KiB (54%)
Writing library : Zencoder Video Encoding System
Encoded date : UTC 2015-12-09 08:46:04
Tagged date : UTC 2015-12-09 08:46:09

Audio
ID : 2
Format : AAC
Format/Info : Advanced Audio Codec
Format profile : LC
Codec ID : 40
Duration : 1mn 1s
Bit rate mode : Variable
Bit rate : 81.1 Kbps
Maximum bit rate : 95.1 Kbps
Channel(s) : 2 channels
Channel positions : Front: L R
Sampling rate : 44.1 KHz
Frame rate : 43.066 fps (1024 spf)
Compression mode : Lossy
Stream size : 606 KiB (44%)
Encoded date : UTC 2015-12-09 08:46:04
Tagged date : UTC 2015-12-09 08:46:09

General
Complete name : 06_-_Contacting_Suppliers\29_-_Looking_Serious_When_Asking_For_A_Quote_and_still_leave_Negotiations_Open.mp4
Format : MPEG-4
Format profile : Base Media
Codec ID : isom (isom/avc1/mp42)
File size : 4.50 MiB
Duration : 2mn 46s
Overall bit rate mode : Variable
Overall bit rate : 227 Kbps
Encoded date : UTC 2015-12-11 13:46:40
Tagged date : UTC 2015-12-11 13:46:40

Video
ID : 1
Format : AVC
Format/Info : Advanced Video Codec
Format profile : Baseline@L3.1
Format settings, CABAC : No
Format settings, ReFrames : 3 frames
Format settings, GOP : M=1, N=50
Codec ID : avc1
Codec ID/Info : Advanced Video Coding
Duration : 2mn 46s
Bit rate : 141 Kbps
Maximum bit rate : 1 476 Kbps
Width : 1 280 pixels
Height : 720 pixels
Display aspect ratio : 16:9
Frame rate mode : Constant
Frame rate : 30.000 fps
Color space : YUV
Chroma subsampling : 4:2:0
Bit depth : 8 bits
Scan type : Progressive
Bits/(Pixel*Frame) : 0.005
Stream size : 2.80 MiB (62%)
Writing library : Zencoder Video Encoding System
Encoded date : UTC 2015-12-11 13:46:31
Tagged date : UTC 2015-12-11 13:46:40

Audio
ID : 2
Format : AAC
Format/Info : Advanced Audio Codec
Format profile : LC
Codec ID : 40
Duration : 2mn 46s
Bit rate mode : Variable
Bit rate : 83.0 Kbps
Maximum bit rate : 96.9 Kbps
Channel(s) : 2 channels
Channel positions : Front: L R
Sampling rate : 44.1 KHz
Frame rate : 43.066 fps (1024 spf)
Compression mode : Lossy
Stream size : 1.64 MiB (37%)
Encoded date : UTC 2015-12-11 13:46:31
Tagged date : UTC 2015-12-11 13:46:40

General
Complete name : 07_-_Negotiation_Skills\31_-_The_Five_Tips_for_Negotiation.mp4
Format : MPEG-4
Format profile : Base Media
Codec ID : isom (isom/avc1/mp42)
File size : 4.75 MiB
Duration : 3mn 34s
Overall bit rate mode : Variable
Overall bit rate : 186 Kbps
Encoded date : UTC 2015-12-12 12:16:26
Tagged date : UTC 2015-12-12 12:16:26

Video
ID : 1
Format : AVC
Format/Info : Advanced Video Codec
Format profile : Baseline@L3.1
Format settings, CABAC : No
Format settings, ReFrames : 3 frames
Format settings, GOP : M=1, N=50
Codec ID : avc1
Codec ID/Info : Advanced Video Coding
Duration : 3mn 34s
Bit rate : 101 Kbps
Maximum bit rate : 885 Kbps
Width : 1 280 pixels
Height : 720 pixels
Display aspect ratio : 16:9
Frame rate mode : Constant
Frame rate : 30.000 fps
Color space : YUV
Chroma subsampling : 4:2:0
Bit depth : 8 bits
Scan type : Progressive
Bits/(Pixel*Frame) : 0.004
Stream size : 2.58 MiB (54%)
Writing library : Zencoder Video Encoding System
Encoded date : UTC 2015-12-12 12:16:09
Tagged date : UTC 2015-12-12 12:16:27

Audio
ID : 2
Format : AAC
Format/Info : Advanced Audio Codec
Format profile : LC
Codec ID : 40
Duration : 3mn 34s
Bit rate mode : Variable
Bit rate : 82.3 Kbps
Maximum bit rate : 98.0 Kbps
Channel(s) : 2 channels
Channel positions : Front: L R
Sampling rate : 44.1 KHz
Frame rate : 43.066 fps (1024 spf)
Compression mode : Lossy
Stream size : 2.10 MiB (44%)
Encoded date : UTC 2015-12-12 12:16:09
Tagged date : UTC 2015-12-12 12:16:27

General
Complete name : 10_-_Ordering_a_Shipment\37_-_Using_the_Online_Order_System.mp4
Format : MPEG-4
Format profile : Base Media
Codec ID : isom (isom/avc1/mp42)
File size : 10.0 MiB
Duration : 4mn 47s
Overall bit rate mode : Variable
Overall bit rate : 293 Kbps
Encoded date : UTC 2015-12-11 03:53:53
Tagged date : UTC 2015-12-11 03:53:53

Video
ID : 1
Format : AVC
Format/Info : Advanced Video Codec
Format profile : Baseline@L3.2
Format settings, CABAC : No
Format settings, ReFrames : 3 frames
Format settings, GOP : M=1, N=75
Codec ID : avc1
Codec ID/Info : Advanced Video Coding
Duration : 4mn 46s
Bit rate : 205 Kbps
Maximum bit rate : 963 Kbps
Width : 1 342 pixels
Height : 720 pixels
Display aspect ratio : 1.85:1
Frame rate mode : Constant
Frame rate : 30.000 fps
Color space : YUV
Chroma subsampling : 4:2:0
Bit depth : 8 bits
Scan type : Progressive
Bits/(Pixel*Frame) : 0.007
Stream size : 7.00 MiB (70%)
Writing library : Zencoder Video Encoding System
Encoded date : UTC 2015-12-11 03:53:39
Tagged date : UTC 2015-12-11 03:53:53

Audio
ID : 2
Format : AAC
Format/Info : Advanced Audio Codec
Format profile : LC
Codec ID : 40
Duration : 4mn 47s
Bit rate mode : Variable
Bit rate : 85.2 Kbps
Maximum bit rate : 97.2 Kbps
Channel(s) : 2 channels
Channel positions : Front: L R
Sampling rate : 44.1 KHz
Frame rate : 43.066 fps (1024 spf)
Compression mode : Lossy
Stream size : 2.92 MiB (29%)
Encoded date : UTC 2015-12-11 03:53:39
Tagged date : UTC 2015-12-11 03:53:53

General
Complete name : 10_-_Ordering_a_Shipment\38_-_How_To_Pay_For_It.mp4
Format : MPEG-4
Format profile : Base Media
Codec ID : isom (isom/avc1/mp42)
File size : 16.8 MiB
Duration : 3mn 58s
Overall bit rate mode : Variable
Overall bit rate : 589 Kbps
Encoded date : UTC 2015-12-11 04:09:34
Tagged date : UTC 2015-12-11 04:09:34

Video
ID : 1
Format : AVC
Format/Info : Advanced Video Codec
Format profile : Baseline@L3.2
Format settings, CABAC : No
Format settings, ReFrames : 3 frames
Format settings, GOP : M=1, N=50
Codec ID : avc1
Codec ID/Info : Advanced Video Coding
Duration : 3mn 58s
Bit rate : 498 Kbps
Maximum bit rate : 1 674 Kbps
Width : 1 342 pixels
Height : 720 pixels
Display aspect ratio : 1.85:1
Frame rate mode : Constant
Frame rate : 30.000 fps
Color space : YUV
Chroma subsampling : 4:2:0
Bit depth : 8 bits
Scan type : Progressive
Bits/(Pixel*Frame) : 0.017
Stream size : 14.2 MiB (84%)
Writing library : Zencoder Video Encoding System
Encoded date : UTC 2015-12-11 04:09:17
Tagged date : UTC 2015-12-11 04:09:34

Audio
ID : 2
Format : AAC
Format/Info : Advanced Audio Codec
Format profile : LC
Codec ID : 40
Duration : 3mn 58s
Bit rate mode : Variable
Bit rate : 88.8 Kbps
Maximum bit rate : 102 Kbps
Channel(s) : 2 channels
Channel positions : Front: L R
Sampling rate : 44.1 KHz
Frame rate : 43.066 fps (1024 spf)
Compression mode : Lossy
Stream size : 2.53 MiB (15%)
Encoded date : UTC 2015-12-11 04:09:17
Tagged date : UTC 2015-12-11 04:09:34

General
Complete name : 12_-_How_To_Sell_The_Products_on_When_They_Arrive\42_-_Amazon.mp4
Format : MPEG-4
Format profile : Base Media
Codec ID : isom (isom/avc1/mp42)
File size : 4.99 MiB
Duration : 2mn 40s
Overall bit rate mode : Variable
Overall bit rate : 261 Kbps
Encoded date : UTC 2015-12-11 05:03:24
Tagged date : UTC 2015-12-11 05:03:24

Video
ID : 1
Format : AVC
Format/Info : Advanced Video Codec
Format profile : Baseline@L3.1
Format settings, CABAC : No
Format settings, ReFrames : 3 frames
Format settings, GOP : M=1, N=50
Codec ID : avc1
Codec ID/Info : Advanced Video Coding
Duration : 2mn 40s
Bit rate : 169 Kbps
Maximum bit rate : 2 896 Kbps
Width : 1 280 pixels
Height : 720 pixels
Display aspect ratio : 16:9
Frame rate mode : Constant
Frame rate : 30.000 fps
Color space : YUV
Chroma subsampling : 4:2:0
Bit depth : 8 bits
Scan type : Progressive
Bits/(Pixel*Frame) : 0.006
Stream size : 3.23 MiB (65%)
Writing library : Zencoder Video Encoding System
Encoded date : UTC 2015-12-11 05:03:15
Tagged date : UTC 2015-12-11 05:03:25

Audio
ID : 2
Format : AAC
Format/Info : Advanced Audio Codec
Format profile : LC
Codec ID : 40
Duration : 2mn 40s
Bit rate mode : Variable
Bit rate : 89.3 Kbps
Maximum bit rate : 99.2 Kbps
Channel(s) : 2 channels
Channel positions : Front: L R
Sampling rate : 44.1 KHz
Frame rate : 43.066 fps (1024 spf)
Compression mode : Lossy
Stream size : 1.71 MiB (34%)
Encoded date : UTC 2015-12-11 05:03:15
Tagged date : UTC 2015-12-11 05:03:25

General
Complete name : 12_-_How_To_Sell_The_Products_on_When_They_Arrive\43_-_Ebay.mp4
Format : MPEG-4
Format profile : Base Media
Codec ID : isom (isom/avc1/mp42)
File size : 3.28 MiB
Duration : 2mn 11s
Overall bit rate mode : Variable
Overall bit rate : 209 Kbps
Encoded date : UTC 2015-12-12 12:43:47
Tagged date : UTC 2015-12-12 12:43:47

Video
ID : 1
Format : AVC
Format/Info : Advanced Video Codec
Format profile : Baseline@L3.1
Format settings, CABAC : No
Format settings, ReFrames : 3 frames
Codec ID : avc1
Codec ID/Info : Advanced Video Coding
Duration : 2mn 11s
Bit rate : 123 Kbps
Maximum bit rate : 1 579 Kbps
Width : 1 280 pixels
Height : 720 pixels
Display aspect ratio : 16:9
Frame rate mode : Constant
Frame rate : 30.000 fps
Color space : YUV
Chroma subsampling : 4:2:0
Bit depth : 8 bits
Scan type : Progressive
Bits/(Pixel*Frame) : 0.004
Stream size : 1.93 MiB (59%)
Writing library : Zencoder Video Encoding System
Encoded date : UTC 2015-12-12 12:43:21
Tagged date : UTC 2015-12-12 12:43:47

Audio
ID : 2
Format : AAC
Format/Info : Advanced Audio Codec
Format profile : LC
Codec ID : 40
Duration : 2mn 11s
Bit rate mode : Variable
Bit rate : 82.8 Kbps
Maximum bit rate : 95.2 Kbps
Channel(s) : 2 channels
Channel positions : Front: L R
Sampling rate : 44.1 KHz
Frame rate : 43.066 fps (1024 spf)
Compression mode : Lossy
Stream size : 1.30 MiB (40%)
Encoded date : UTC 2015-12-12 12:43:21
Tagged date : UTC 2015-12-12 12:43:47

General
Complete name : 13_-_Other_Relevant_Information_This_Section_is_Where_I_put_All_My_Tangents\47_-_What_If_I_want_to_Buy_Less_Items.mp4
Format : MPEG-4
Format profile : Base Media
Codec ID : isom (isom/avc1/mp42)
File size : 9.43 MiB
Duration : 2mn 0s
Overall bit rate mode : Variable
Overall bit rate : 658 Kbps
Encoded date : UTC 2015-12-12 13:00:40
Tagged date : UTC 2015-12-12 13:00:40

Video
ID : 1
Format : AVC
Format/Info : Advanced Video Codec
Format profile : Baseline@L3.1
Format settings, CABAC : No
Format settings, ReFrames : 3 frames
Format settings, GOP : M=1, N=50
Codec ID : avc1
Codec ID/Info : Advanced Video Coding
Duration : 2mn 0s
Bit rate : 565 Kbps
Maximum bit rate : 2 473 Kbps
Width : 1 280 pixels
Height : 720 pixels
Display aspect ratio : 16:9
Frame rate mode : Constant
Frame rate : 30.000 fps
Color space : YUV
Chroma subsampling : 4:2:0
Bit depth : 8 bits
Scan type : Progressive
Bits/(Pixel*Frame) : 0.020
Stream size : 8.09 MiB (86%)
Writing library : Zencoder Video Encoding System
Encoded date : UTC 2015-12-12 13:00:32
Tagged date : UTC 2015-12-12 13:00:40

Audio
ID : 2
Format : AAC
Format/Info : Advanced Audio Codec
Format profile : LC
Codec ID : 40
Duration : 2mn 0s
Bit rate mode : Variable
Bit rate : 91.2 Kbps
Maximum bit rate : 100 Kbps
Channel(s) : 2 channels
Channel positions : Front: L R
Sampling rate : 44.1 KHz
Frame rate : 43.066 fps (1024 spf)
Compression mode : Lossy
Stream size : 1.31 MiB (14%)
Encoded date : UTC 2015-12-12 13:00:32
Tagged date : UTC 2015-12-12 13:00:40

General
Complete name : 13_-_Other_Relevant_Information_This_Section_is_Where_I_put_All_My_Tangents\49_-_When_to_Just_Say_NO_.mp4
Format : MPEG-4
Format profile : Base Media
Codec ID : isom (isom/avc1/mp42)
File size : 2.93 MiB
Duration : 2mn 25s
Overall bit rate mode : Variable
Overall bit rate : 169 Kbps
Encoded date : UTC 2015-12-11 04:33:08
Tagged date : UTC 2015-12-11 04:33:08

Video
ID : 1
Format : AVC
Format/Info : Advanced Video Codec
Format profile : Baseline@L3.1
Format settings, CABAC : No
Format settings, ReFrames : 3 frames
Format settings, GOP : M=1, N=50
Codec ID : avc1
Codec ID/Info : Advanced Video Coding
Duration : 2mn 25s
Bit rate : 80.7 Kbps
Maximum bit rate : 1 225 Kbps
Width : 1 280 pixels
Height : 720 pixels
Display aspect ratio : 16:9
Frame rate mode : Constant
Frame rate : 30.000 fps
Color space : YUV
Chroma subsampling : 4:2:0
Bit depth : 8 bits
Scan type : Progressive
Bits/(Pixel*Frame) : 0.003
Stream size : 1.40 MiB (48%)
Writing library : Zencoder Video Encoding System
Encoded date : UTC 2015-12-11 04:32:46
Tagged date : UTC 2015-12-11 04:33:08

Audio
ID : 2
Format : AAC
Format/Info : Advanced Audio Codec
Format profile : LC
Codec ID : 40
Duration : 2mn 25s
Bit rate mode : Variable
Bit rate : 85.2 Kbps
Maximum bit rate : 97.2 Kbps
Channel(s) : 2 channels
Channel positions : Front: L R
Sampling rate : 44.1 KHz
Frame rate : 43.066 fps (1024 spf)
Compression mode : Lossy
Stream size : 1.48 MiB (51%)
Encoded date : UTC 2015-12-11 04:32:46
Tagged date : UTC 2015-12-11 04:33:08

General
Complete name : 13_-_Other_Relevant_Information_This_Section_is_Where_I_put_All_My_Tangents\51_-_Introduction.mp4
Format : MPEG-4
Format profile : Base Media
Codec ID : isom (isom/avc1/mp42)
File size : 8.27 MiB
Duration : 4mn 23s
Overall bit rate mode : Variable
Overall bit rate : 264 Kbps
Encoded date : UTC 2015-12-14 01:18:49
Tagged date : UTC 2015-12-14 01:18:49

Video
ID : 1
Format : AVC
Format/Info : Advanced Video Codec
Format profile : Baseline@L3.1
Format settings, CABAC : No
Format settings, ReFrames : 3 frames
Codec ID : avc1
Codec ID/Info : Advanced Video Coding
Duration : 4mn 23s
Bit rate : 177 Kbps
Maximum bit rate : 2 861 Kbps
Width : 1 280 pixels
Height : 720 pixels
Display aspect ratio : 16:9
Frame rate mode : Constant
Frame rate : 30.000 fps
Color space : YUV
Chroma subsampling : 4:2:0
Bit depth : 8 bits
Scan type : Progressive
Bits/(Pixel*Frame) : 0.006
Stream size : 5.54 MiB (67%)
Writing library : Zencoder Video Encoding System
Encoded date : UTC 2015-12-14 01:18:06
Tagged date : UTC 2015-12-14 01:18:49

Audio
ID : 2
Format : AAC
Format/Info : Advanced Audio Codec
Format profile : LC
Codec ID : 40
Duration : 4mn 23s
Bit rate mode : Variable
Bit rate : 84.4 Kbps
Maximum bit rate : 97.0 Kbps
Channel(s) : 2 channels
Channel positions : Front: L R
Sampling rate : 44.1 KHz
Frame rate : 43.066 fps (1024 spf)
Compression mode : Lossy
Stream size : 2.65 MiB (32%)
Encoded date : UTC 2015-12-14 01:18:06
Tagged date : UTC 2015-12-14 01:18:49
У вас нет необходимых прав для просмотра вложений в этом сообщении.