Бух.учет в соответствии с МСФО [2016, Бух.учет в соответствии с МСФО, RUS] (Видеоурок)

Открытие, развитие и стратегия введения бизнеса.
Торрент Сидеров Личеров Размер
torrent_5218906.torrent
0 0 14.06 ГБ
Аватара пользователя
Stepan
Администратор
Сообщения: 52267
Зарегистрирован: 05 ноя 2011, 20:36

Бух.учет в соответствии с МСФО [2016, Бух.учет в соответствии с МСФО, RUS] (Видеоурок)

Сообщение Stepan » 19 сен 2016, 08:50

Бух.учет в соответствии с МСФО

Страна: РК
Тематика: Бух.учет в соответствии с МСФО
Тип раздаваемого материала: Видеоурок
Продолжительность: 45:02:00
Год выпуска: 2016

Язык: Русский
Перевод: Не требуется

Описание: МСФО (международные стандарты финансовой отчетности) используются при составлении финансовой и управленческой отчетности предприятия. Курс предназначен для сдачи одно из трех экзаменов "Профессиональный бухгалтер РК" (Бух.учет в соответсвии с МСФО)

Качество видео: PCrip
Формат видео: MPEG-4
Format : MPEG-4
Format profile : Base Media
Codec ID : isom (mp41)
File size : 449 MiB
Duration : 2h 45mn
Overall bit rate mode : Variable
Overall bit rate : 380 Kbps

Video
ID : 1
Format : AVC
Format/Info : Advanced Video Codec
Format profile : Main@L3.2
Format settings, CABAC : Yes
Format settings, ReFrames : 1 frame
Codec ID : avc1
Codec ID/Info : Advanced Video Coding
Duration : 2h 45mn
Bit rate : 210 Kbps
Width : 1 088 pixels
Height : 648 pixels
Display aspect ratio : 5:3
Frame rate mode : Variable
Frame rate : 31.609 fps
Minimum frame rate : 2.222 fps
Maximum frame rate : 60.060 fps
Original frame rate : 60.000 fps
Color space : YUV
Chroma subsampling : 4:2:0
Bit depth : 8 bits
Scan type : Progressive
Bits/(Pixel*Frame) : 0.009
Stream size : 248 MiB (55%)

Audio
ID : 2
Format : AAC
Format/Info : Advanced Audio Codec
Format profile : LC
Codec ID : 40
Duration : 2h 45mn
Bit rate mode : Variable
Bit rate : 162 Kbps
Maximum bit rate : 324 Kbps
Channel(s) : 2 channels
Channel positions : Front: L R
Sampling rate : 48.0 KHz
Frame rate : 46.875 fps (1024 spf)
Compression mode : Lossy
Stream size : 192 MiB (43%)
У вас нет необходимых прав для просмотра вложений в этом сообщении.