Криптовалюты. Золото цифрового века. Bitcoin. Биткоин. [2015, WEBRip, RUS] (Познавательное)

Открытие, развитие и стратегия введения бизнеса.
Торрент Сидеров Личеров Размер
torrent_5101628.torrent
0 0 675.04 МБ
Аватара пользователя
Stepan
Администратор
Сообщения: 52270
Зарегистрирован: 05 ноя 2011, 20:36

Криптовалюты. Золото цифрового века. Bitcoin. Биткоин. [2015, WEBRip, RUS] (Познавательное)

Сообщение Stepan » 19 сен 2016, 08:52

Криптовалюты. Золото цифрового века. Bitcoin. Биткоин.
Жанр: Познавательное
Продолжительность: 00:43:01
Год выпуска: 2015
Язык: Русский

Студия: ООО “ГОВОРИТ И ПОКАЗЫВАЕТ” (productiontv.tv)
Канал: BitNovosti.com

Описание: Как говорят ученые-экономисты, “сущность денег не ясна”. Экономисты и финансисты до сих пор спорят: Является ли Биткойн настоящими деньгами? Это действительно всерьез и надолго? Как криптовалюты повлияют на государство и общество? В ходе фильма, майнер проходит все стадии работы с криптовалютой: от изначального скептицизма к энтузиазму. Он сам проводит свое исследование. Что же такое деньги? Какими они были в разные времена, как менялся подход к обеспечению денег? И что же такое Биткойн?
Этот фильм простым языком рассказывает об истории и сути криптовалют и Биткойна, в частности; о проблемах и позициях Биткойна в разных регионах мира; о сути денег вообще и отличии криптовалют от обычных платежных средств. То есть, это фильм просветительского характера о феномене интернет-валюты Биткойн.

Доп. информация:
Фильм был снят по заказу ВГТРК, но не попал в эфир по политическим причинам.
Криптовалюты (bitcoin, litecoin, койны) - это распределённая (децентрализованная) система обмена сообщениями, гарантирующая, что информация в одном месте прибудет, а в другом убудет, то есть осуществление транзакции (транзакциями, transaction), что в физическом мире равна передаче вещей из рук в руки. Система ведёт распределённый журнал (blockchain), в котором каждая следующая транзакция подтверждает предыдущую, тем самым криптовалюты являются подписным векселем на предъявителя.
Пиринговая организация (равноправные участники, peer-to-peer, P2P) и открытый исходный код дают возможность каждому желающему участровать в этой системе на равных правах, запустив и серверную и клиентскую часть.

Указанные особенности стали удобны для создания цифровой платёжной системы (Биткоин, Лайткоин и мн. другие), по своим свойствам аналогичной наличным деньгам (криптовалюта, cryptocurrency):
- ограниченная эмиссия (всего 21 000 000 биткоинов по условиям самой системы)
- псевдонимная учётная запись (кошелёк, wallet) (пользователь сам создаёт неограниченное число кошельков, при этом кошелёк НИКАК НЕ ПРИВЯЗАН К ЛИЧНОСТИ и гражданским правам владельца, ПОКА он САМ на это не согласится!)
- ВНЕюрисдикционная, трансграничная политика (политики регулируются самой системой и гарантируются и поддерживаются (эммитируется) самими участниками и открытыми исходниками)
- открытый журнал транзакций (любой может прочитать любую транзакцию за любой период)
- невозвратность (невозможно отменить или заблокировать передачу сообщения, транзакции)
- унифицированность и делимость оборотной единицы (коина) (все коины внутри системы равны между собой, при этом имеют возможность кратно делиться)
- является мерой стоимости, ценой включения транзакции в блокчейн (комиссии за осуществление транзакции принимаются системой и ускоряют её подписание, при этом комиссия не является обязательной)
Качество: WEBRip
Формат: MP4
Видео: AVC (H264) 1280x720 25fps 1809kbps [V: h264 high L3.1, yuv420p, 1280x720, 1809 kb/s]
Аудио: AAC 44100Hz stereo 191kbps [A:(aac lc, 44100 Hz, stereo, 191 kb/s)]
General
Complete name : .\Криптовалюты. Золото цифрового века. (2015) [RUS]\Криптовалюты. Золото цифрового века - Премьера BitNovosti.com.mp4
Format : MPEG-4
Format profile : Base Media / Version 2
Codec ID : mp42
File size : 617 MiB
Duration : 43mn 0s
Overall bit rate mode : Variable
Overall bit rate : 2 004 Kbps
Encoded date : UTC 2015-10-20 14:35:00
Tagged date : UTC 2015-10-20 14:35:00
gsst : 0
gstd : 2580688
gssd : BADC29484
gshh : r4---sn-n8v7znl7.googlevideo.com

Video
ID : 1
Format : AVC
Format/Info : Advanced Video Codec
Format profile : High@L3.1
Format settings, CABAC : Yes
Format settings, ReFrames : 1 frame
Codec ID : avc1
Codec ID/Info : Advanced Video Coding
Duration : 43mn 0s
Bit rate : 1 810 Kbps
Maximum bit rate : 10.1 Mbps
Width : 1 280 pixels
Height : 720 pixels
Display aspect ratio : 16:9
Frame rate mode : Constant
Frame rate : 25.000 fps
Color space : YUV
Chroma subsampling : 4:2:0
Bit depth : 8 bits
Scan type : Progressive
Bits/(Pixel*Frame) : 0.079
Stream size : 557 MiB (90%)
Tagged date : UTC 2015-10-20 14:37:10

Audio
ID : 2
Format : AAC
Format/Info : Advanced Audio Codec
Format profile : LC
Codec ID : 40
Duration : 43mn 0s
Bit rate mode : Variable
Bit rate : 192 Kbps
Maximum bit rate : 202 Kbps
Channel(s) : 2 channels
Channel positions : Front: L R
Sampling rate : 44.1 KHz
Compression mode : Lossy
Stream size : 59.1 MiB (10%)
Title : IsoMedia File Produced by Google, 5-11-2011
Language : English
Encoded date : UTC 2015-10-20 14:36:14
Tagged date : UTC 2015-10-20 14:37:10
У вас нет необходимых прав для просмотра вложений в этом сообщении.