Курсы-по-1С.РФ / Полный курс по 1С-Бухгалтерии 8 (редакция 3.0). Версия 1.1.3 [2015, Бухгалтерия, WEBRip, RUS]

Открытие, развитие и стратегия введения бизнеса.
Торрент Сидеров Личеров Размер
torrent_5182216.torrent
22 7 4.88 ГБ
Аватара пользователя
Stepan
Администратор
Сообщения: 52267
Зарегистрирован: 05 ноя 2011, 20:36

Курсы-по-1С.РФ / Полный курс по 1С-Бухгалтерии 8 (редакция 3.0). Версия 1.1.3 [2015, Бухгалтерия, WEBRip, RUS]

Сообщение Stepan » 19 сен 2016, 08:59

Курсы-по-1С.РФ — Полный курс по 1С-Бухгалтерии 8 (редакция 3.0). Версия 1.1.3

Страна: Россия
Тематика: Бухгалтерия, финансы
Тип раздаваемого материала: видеоуроки
Продолжительность: 46:12:43
Год выпуска: 2015

Язык: Русский
Перевод: Не требуется

Описание: Наша цель — самый полный курс по 1С:Бухгалтерии, от основ бухгалтерского учета до самых сложных операций. Работа одного автора всегда однобока — это либо взгляд программиста, либо взгляд бухгалтера. Поэтому к разработке Полного курса было привлечено 13 (!) человек — чтобы учесть все точки зрения.

Качество: WEBRip
Формат: AVI
Видео кодек: XviD
Аудио кодек: MP2
Видео: XviD 1280x720 24fps 300kbps
Аудио: MP2 48000Hz stereo 128kbps
Качество: WEBRip
Формат: FLV
Видео кодек: XviD
Аудио кодек: MP2
Видео: MPEG4 Video (H264) 1280x720 6fps 124kbps
Аудио: AAC 44100Hz stereo 125kbps

Качество: WEBRip
Формат: MP4
Видео кодек: H.264
Аудио кодек: AAC
Видео: MPEG4 Video (H264) 1280x720 30fps 1023kbps
Аудио: AAC 44100Hz stereo 45.6kbps
General

Complete name : C:\Music\DownloadTorrent\Finished\Курсы-по-1С.РФ — Полный курс по 1С-Бухгалтерии 8 (редакция 3.0). Версия 1.1.3 — (2015)\3. Video\3\case13\Account3Base-Payment-Chapter15-Lesson02.mp4
Format : MPEG-4
Format profile : Base Media
Codec ID : isom
File size : 8.56 MiB
Duration : 4mn 9s
Overall bit rate mode : Variable
Overall bit rate : 288 Kbps
Writing application : Lavf56.25.101

Video
ID : 1
Format : AVC
Format/Info : Advanced Video Codec
Format profile : High@L3.1
Format settings, CABAC : Yes
Format settings, ReFrames : 4 frames
Codec ID : avc1
Codec ID/Info : Advanced Video Coding
Duration : 4mn 9s
Bit rate : 236 Kbps
Width : 1 280 pixels
Height : 720 pixels
Display aspect ratio : 16:9
Frame rate mode : Constant
Frame rate : 30.000 fps
Standard : NTSC
Color space : YUV
Chroma subsampling : 4:2:0
Bit depth : 8 bits
Scan type : Progressive
Bits/(Pixel*Frame) : 0.009
Stream size : 7.00 MiB (82%)
Color range : Limited
Color primaries : BT.709
Transfer characteristics : BT.709
Matrix coefficients : BT.709

Audio
ID : 2
Format : AAC
Format/Info : Advanced Audio Codec
Format profile : LC
Codec ID : 40
Duration : 4mn 9s
Bit rate mode : Variable
Bit rate : 45.6 Kbps
Maximum bit rate : 128 Kbps
Channel(s) : 2 channels
Channel positions : Front: L R
Sampling rate : 44.1 KHz
Compression mode : Lossy
Stream size : 1.35 MiB (16%)
Language : unk
General
Complete name : C:\Music\DownloadTorrent\Finished\Курсы-по-1С.РФ — Полный курс по 1С-Бухгалтерии 8 (редакция 3.0). Версия 1.1.3 — (2015)\3. Video\3\case05\3\Account3Base-Module08-Chapter03-Lesson01.avi
Format : AVI
Format/Info : Audio Video Interleave
File size : 5.08 MiB
Duration : 3mn 30s
Overall bit rate : 203 Kbps
Writing application : BandiAviMuxer 1.0
Writing library : VirtualDub build 35491/release

Video
ID : 0
Format : MPEG-4 Visual
Format profile : Simple@L1
Format settings, BVOP : Yes
Format settings, QPel : No
Format settings, GMC : No warppoints
Format settings, Matrix : Default (H.263)
Codec ID : XVID
Codec ID/Hint : XviD
Duration : 3mn 30s
Bit rate : 65.3 Kbps
Width : 1 280 pixels
Height : 720 pixels
Display aspect ratio : 16:9
Frame rate : 24.000 fps
Color space : YUV
Chroma subsampling : 4:2:0
Bit depth : 8 bits
Scan type : Progressive
Compression mode : Lossy
Bits/(Pixel*Frame) : 0.003
Stream size : 1.64 MiB (32%)

Audio
ID : 1
Format : MPEG Audio
Format version : Version 1
Format profile : Layer 2
Codec ID : 50
Duration : 3mn 30s
Bit rate mode : Constant
Bit rate : 128 Kbps
Channel(s) : 2 channels
Sampling rate : 48.0 KHz
Compression mode : Lossy
Stream size : 3.20 MiB (63%)
Alignment : Split accross interleaves
Interleave, duration : 42 ms (1.00 video frame)
Interleave, preload duration : 500 ms
General
Complete name : C:\Music\DownloadTorrent\Finished\Курсы-по-1С.РФ — Полный курс по 1С-Бухгалтерии 8 (редакция 3.0). Версия 1.1.3 — (2015)\1. Free\cases\case01.flv
Format : Flash Video
File size : 4.52 MiB
Duration : 3mn 2s
Overall bit rate : 208 Kbps
Writing application : Wistia
Tagging application : Yet Another Metadata Injector for FLV - Version 2.0

Video
Format : AVC
Format/Info : Advanced Video Codec
Format profile : High@L3.1
Format settings, CABAC : Yes
Format settings, ReFrames : 4 frames
Codec ID : 7
Duration : 3mn 2s
Bit rate : 71.7 Kbps
Nominal bit rate : 500 Kbps
Width : 1 280 pixels
Height : 720 pixels
Display aspect ratio : 16:9
Frame rate mode : Constant
Frame rate : 6.017 fps
Color space : YUV
Chroma subsampling : 4:2:0
Bit depth : 8 bits
Scan type : Progressive
Bits/(Pixel*Frame) : 0.013
Stream size : 1.61 MiB (36%)
Writing library : x264 core 142 r2431 ac76440
Encoding settings : cabac=1 / ref=2 / deblock=1:0:0 / analyse=0x3:0x113 / me=hex / subme=6 / psy=1 / psy_rd=1.00:0.00 / mixed_ref=1 / me_range=16 / chroma_me=1 / trellis=0 / 8x8dct=1 / cqm=0 / deadzone=21,11 / fast_pskip=1 / chroma_qp_offset=-2 / threads=12 / lookahead_threads=2 / sliced_threads=0 / nr=0 / decimate=1 / interlaced=0 / bluray_compat=0 / constrained_intra=0 / bframes=3 / b_pyramid=2 / b_adapt=1 / b_bias=0 / direct=3 / weightb=1 / open_gop=0 / weightp=2 / keyint=250 / keyint_min=25 / scenecut=40 / intra_refresh=0 / rc_lookahead=40 / rc=2pass / mbtree=1 / bitrate=500 / ratetol=1.0 / qcomp=0.60 / qpmin=10 / qpmax=51 / qpstep=4 / cplxblur=20.0 / qblur=0.5 / ip_ratio=1.41 / aq=1:1.00

Audio
Format : AAC
Format/Info : Advanced Audio Codec
Format profile : LC
Codec ID : 10
Duration : 3mn 2s
Bit rate : 125 Kbps
Channel(s) : 2 channels
Channel positions : Front: L R
Sampling rate : 44.1 KHz
Compression mode : Lossy
Delay relative to video : 287ms
Stream size : 2.88 MiB (64%)
У вас нет необходимых прав для просмотра вложений в этом сообщении.