Бизнес Молодость | Реальный директ [2015, Бизнес, RUS] (Видеоурок)

Открытие, развитие и стратегия введения бизнеса.
Торрент Сидеров Личеров Размер
torrent_5114715.torrent
0 0 6.5 ГБ
Аватара пользователя
Stepan
Администратор
Сообщения: 52267
Зарегистрирован: 05 ноя 2011, 20:36

Бизнес Молодость | Реальный директ [2015, Бизнес, RUS] (Видеоурок)

Сообщение Stepan » 19 сен 2016, 09:00

Бизнес Молодость | Реальный директ

Страна: Россия
Тематика: Бизнес
Тип раздаваемого материала: Видеоурок
Продолжительность: 31:34:32
Год выпуска: 2015

Язык: Русский
Перевод: Не требуется

Описание: Реальный директ от БМ

Практический онлайн-курс по созданию и оптимизации потока клиентов из Яндекс.Директ. 10 занятий на протяжение 37 дней. Маньяки Директа.

На кого рассчитан курс?
- На владельцев бизнеса, которые хотят получать мощный поток клиентов и устали от подрядчиков с кривыми руками
- На подрядчиков, понимающих, что у них кривые руки, но они хотят начать использовать инструмент на все 100%
- На интернет-маркетологов, которые хотят обладать ультра-передовыми технологиями
- На новичков, которые впервые запускают кампанию и хотят сразу получать клиентов по выгодной цене
- На тех, кто вообще не понимает в Директе, но хочет в нём разобраться

Доп. информация: Помимо основных видеоуроков, данная раздача содержит дополнительные видео по KeyCollector'у, созданию объявлений в эксель таблицах и по отчетностям.
Также в раздаче все методички, майндмепы, полезные ссылки и файлы презентаций к каждому занятию.

Качество: WEBRip
Формат: MP4
Видео кодек: AVC-1
Аудио кодек: AAC
Видео: MPEG4 Video (H264) 1012x570 30fps 300kbps
Видео: MPEG4 Video (H264) 1280x688 30fps 308kbps
Аудио: AAC 48000Hz stereo 126kbps
Аудио: AAC 44100Hz stereo 136kbps
General
Complete name :
Format : MPEG-4
Format profile : Base Media / Version 2
Codec ID : mp42
File size : 533 MiB
Duration : 2h 51mn
Overall bit rate mode : Variable
Overall bit rate : 435 Kbps
Encoded date : UTC 2015-08-16 22:17:54
Tagged date : UTC 2015-08-16 22:17:54
Writing application : HandBrake 0.10.2 2015061100

Video
ID : 1
Format : AVC
Format/Info : Advanced Video Codec
Format profile : Main@L4.0
Format settings, CABAC : Yes
Format settings, ReFrames : 4 frames
Codec ID : avc1
Codec ID/Info : Advanced Video Coding
Duration : 2h 51mn
Bit rate : 300 Kbps
Width : 1 012 pixels
Height : 570 pixels
Display aspect ratio : 16:9
Frame rate mode : Variable
Frame rate : 30.000 fps
Minimum frame rate : 10.000 fps
Maximum frame rate : 31.250 fps
Color space : YUV
Chroma subsampling : 4:2:0
Bit depth : 8 bits
Scan type : Progressive
Bits/(Pixel*Frame) : 0.017
Stream size : 368 MiB (69%)
Writing library : x264 core 142 r2479 dd79a61
Encoding settings : cabac=1 / ref=1 / deblock=1:0:0 / analyse=0x1:0x111 / me=hex / subme=2 / psy=1 / psy_rd=1.00:0.00 / mixed_ref=0 / me_range=16 / chroma_me=1 / trellis=0 / 8x8dct=0 / cqm=0 / deadzone=21,11 / fast_pskip=1 / chroma_qp_offset=0 / threads=6 / lookahead_threads=2 / sliced_threads=0 / nr=0 / decimate=1 / interlaced=0 / bluray_compat=0 / constrained_intra=0 / bframes=3 / b_pyramid=2 / b_adapt=1 / b_bias=0 / direct=1 / weightb=1 / open_gop=0 / weightp=1 / keyint=300 / keyint_min=30 / scenecut=40 / intra_refresh=0 / rc_lookahead=10 / rc=abr / mbtree=1 / bitrate=300 / ratetol=1.0 / qcomp=0.60 / qpmin=0 / qpmax=69 / qpstep=4 / vbv_maxrate=20000 / vbv_bufsize=25000 / nal_hrd=none / filler=0 / ip_ratio=1.40 / aq=1:1.00
Encoded date : UTC 2015-08-16 22:17:54
Tagged date : UTC 2015-08-16 22:17:54
Color primaries : BT.709
Transfer characteristics : BT.709
Matrix coefficients : BT.601

Audio
ID : 2
Format : AAC
Format/Info : Advanced Audio Codec
Format profile : LC
Codec ID : 40
Duration : 2h 51mn
Bit rate mode : Variable
Bit rate : 126 Kbps
Channel(s) : 2 channels
Channel positions : Front: L R
Sampling rate : 48.0 KHz
Compression mode : Lossy
Stream size : 155 MiB (29%)
Title : Stereo
Language : English
Encoded date : UTC 2015-08-16 22:17:54
Tagged date : UTC 2015-08-16 22:17:54
У вас нет необходимых прав для просмотра вложений в этом сообщении.