Бизнес Молодость | Выбор ниши [2015, Бизнес, маркетинг, WEBRip, RUS] (Видеоурок)

Открытие, развитие и стратегия введения бизнеса.
Торрент Сидеров Личеров Размер
torrent_5129593.torrent
36 12 7.35 ГБ
Аватара пользователя
Stepan
Администратор
Сообщения: 52270
Зарегистрирован: 05 ноя 2011, 20:36

Бизнес Молодость | Выбор ниши [2015, Бизнес, маркетинг, WEBRip, RUS] (Видеоурок)

Сообщение Stepan » 19 сен 2016, 09:01

Бизнес Молодость | Выбор ниши

Тематика: Бизнес, маркетинг
Тип раздаваемого материала: Видеоурок
Год выпуска: 2015
Продолжительность: ~28:30:00
Язык: Русский
Перевод: Не требуется

Описание: С одной стороны курс позволит вам совершить первые шаги, с другой – заложить видение будущего.
Работая над первыми лидами вы будете понимать, что это маленький шаг на большом пути, а не конечная цель ваших действий. Если в результате курса родятся несколько проектов, которые приобретут всероссийский или мировой масштаб – мы будем считать свою миссию выполненной.

Доп. информация: Присутствуют все сопутствующие материалы: файлы отчетов, заданий, эксель таблицы, mp3 файлы и т.п.

Качество: WEBRip
Формат: MP4
Видео кодек: VC-1
Аудио кодек: AAC

Видео: MPEG4 Video (H264) 700x372 25fps 373kbps
Аудио: AAC 44100Hz stereo 125kbps
Видео: MPEG4 Video (H264) 640x360 29.97fps 349kbps
Аудио: AAC 44100Hz stereo 95kbps
Видео: MPEG4 Video (H264) 1280x720 25fps 1138kbps
Аудио: AAC 44100Hz stereo 191kbps
General
Complete name :
Format : MPEG-4
Format profile : Base Media / Version 2
Codec ID : mp42
File size : 716 MiB
Duration : 3h 19mn
Overall bit rate mode : Variable
Overall bit rate : 501 Kbps
Encoded date : UTC 2015-11-09 17:59:18
Tagged date : UTC 2015-11-09 17:59:18

Video
ID : 1
Format : AVC
Format/Info : Advanced Video Codec
Format profile : Main@L3.0
Format settings, CABAC : Yes
Format settings, ReFrames : 3 frames
Codec ID : avc1
Codec ID/Info : Advanced Video Coding
Duration : 3h 19mn
Bit rate : 373 Kbps
Width : 700 pixels
Height : 372 pixels
Display aspect ratio : 1.882
Frame rate mode : Constant
Frame rate : 25.000 fps
Standard : PAL
Color space : YUV
Chroma subsampling : 4:2:0
Bit depth : 8 bits
Scan type : Progressive
Bits/(Pixel*Frame) : 0.057
Stream size : 533 MiB (74%)
Language : English
Encoded date : UTC 2015-11-09 17:59:21
Tagged date : UTC 2015-11-09 17:59:21

Audio
ID : 2
Format : AAC
Format/Info : Advanced Audio Codec
Format profile : LC
Codec ID : 40
Duration : 3h 19mn
Bit rate mode : Variable
Bit rate : 126 Kbps
Maximum bit rate : 475 Kbps
Channel(s) : 2 channels
Channel positions : Front: L R
Sampling rate : 44.1 KHz
Compression mode : Lossy
Stream size : 179 MiB (25%)
Language : English
Encoded date : UTC 2015-11-09 17:59:21
Tagged date : UTC 2015-11-09 17:59:21
У вас нет необходимых прав для просмотра вложений в этом сообщении.