Пётр Осипов, Михаил Дашкиев - Коллекция тренингов и мастер-классов [2010-2013, развитие бизнеса, стартап, продажи и т.д.

Открытие, развитие и стратегия введения бизнеса.
Торрент Сидеров Личеров Размер
torrent_4870306.torrent
0 0 76.1 ГБ
Аватара пользователя
Stepan
Администратор
Сообщения: 52267
Зарегистрирован: 05 ноя 2011, 20:36

Пётр Осипов, Михаил Дашкиев - Коллекция тренингов и мастер-классов [2010-2013, развитие бизнеса, стартап, продажи и т.д.

Сообщение Stepan » 19 сен 2016, 09:02

Пётр Осипов, Михаил Дашкиев - Коллекция тренингов и мастер-классов

Страна: Россия
Тематика: развитие бизнеса, стартап, продажи
Тип раздаваемого материала: Видеоурок
Продолжительность: 217:53:52
Год выпуска: 2010-2013

Язык: Русский
Перевод: Не требуется

Описание: Основную часть коллекции составляет комплект Космической Распродажи 2012 от Бизнес-Молодости. И несколько отдельных курсов 2012 и 2013 гг.
Содержание коллекции:
1)[О чем молчит интернет реклама] Видео-курс
2)FAQ. Ответы на вопросы. Вебинар [БМ]
3)Аудиозаписи_Интенсив и Коучинг
4)Аудиозаписи_Интенсив и Коучинг
5)БМ [Начало]
6)Взрыв продаж. Вебинар
7)Видео-выстрелы. Дайджест из 140 видео
8)Всероссийская конференция от БМ [Бизнес-революция]
9)Всероссийская конференция от БМ [Бизнес-революция]
10)Дверь в БМ [Бизнес. Инструкция по применению]
11)Декларация 2.0 Занятие Мастер-группы
12)Декларация 2.0 Занятие Мастер-группы
13)Декларация 2.0 Занятие Мастер-группы
14)История успеха. Кейсы
15)Как заработать свой первый миллион.Фильм о БМ
16)Как преодолеть страх развития.Вебинар
17)Коучинг [БМ] Бонусное занятие. Копирайтинг
18)Коучинг [БМ] Занятие №1.Модель неизбежных продаж
19)Коучинг [БМ] Занятие №2.Яндекс.Директ, тугая струя клиентов
20)Коучинг [БМ] Занятие №3.Скрипты продаж
21)Коучинг [БМ] Занятие №4.Из точки А в точку Б
22)Коучинг [БМ] Занятие №5.Легализация
23)Коучинг [БМ] Занятие №6. Продающий сайт
24)Коучинг [БМ] Занятие №7.Сотрудники
25)Коучинг [БМ] Занятие №8.Масштаб
26)Культура больших денег. Занятие Мастер-группы
27)Менеджмент 21 века. Guest-speaker
28)Ментор. Занятие мастер-группы
29)Модель 1-1-1. Клуб [БМ]
30)Монетизация базы.Часть №1.Вебинар
31)Монетизация базы.Часть №2.Вебинар
32)Независимость в бизнесе. Интенсив Мастер-группы
33)Первый рывок в бизнесе. Видео-семинар
34)Публичные выступления массового поражения
35)Стратегические мышления в бизнесе.Guest-speaker
36)Страх в бизнесе. Клуб [БМ]
37)Тренинг Тренеров.Обратная сторона тренерства
38)Интенсив [БМ]
Два дня. Инициация и Перепрошивка
Пошаговая инструкция по старту или взрывному росту Вашего бизнеса.
Тотальная перепрошивка вашего мышления в бизнесе: от идеи до потока клиентов. Легендарный 2-х дневный семинар, изменивший 40 000 жизней
39)Марафон вебинаров 2013 г.
40)Библия продающего сайта 2013 г.
41)Энергия стадиона. Мастер класс.
42)Факты о сексе, которые от нас скрывают. Guest-speaker.
43)Коучинг БМ от 16.06.12.
44)Интенсив БМ 2012.

Доп. информация: В коллекции два коучинга и два интенсива, записанные в разные даты.

Качество: CAMRip
Формат: MP4
Видео кодек: H.264
Аудио кодек: AAC
Видео: в mediainfo
Аудио: в mediainfo
Первых пяти курсов:
1.Общее
Полное имя : [О чем молчит интернет реклама] Видео-курс\dvd_red_1_1.mp4
Формат : MPEG-4
Профиль формата : Base Media / Version 2
Идентификатор кодека : mp42
Размер файла : 577 Мбайт
Продолжительность : 1 ч. 8 м.
Режим общего битрейта : Переменный
Общий поток : 1187 Кбит/сек
Дата кодирования : UTC 2012-12-08 14:48:37
Дата пометки : UTC 2012-12-08 14:48:45
©TIM : 00:00:00:00
©TSC : 25
©TSZ : 1

Видео
Идентификатор : 1
Формат : AVC
Формат/Информация : Advanced Video Codec
Профиль формата : Main@L3.1
Параметр CABAC формата : Да
Параметр ReFrames формата : 3 кадра
Параметр GOP формата : M=4, N=25
Идентификатор кодека : avc1
Идентификатор кодека/Информация : Advanced Video Coding
Продолжительность : 1 ч. 8 м.
Вид битрейта : Постоянный
Битрейт : 1000 Кбит/сек
Ширина : 720 пикселей
Высота : 576 пикселей
Соотношение сторон : 4:3
Режим частоты кадров : Переменный
Частота кадров : 25,000 кадров/сек
Минимальная частота кадров : 25,000 кадров/сек
Максимальная частота кадров : 25,025 кадров/сек
Стандарт вещания : PAL
Цветовое пространство : YUV
Субдискретизация насыщенности : 4:2:0
Битовая глубина : 8 бит
Тип развёртки : Прогрессивная
Бит/(Пиксели*Кадры) : 0.096
Размер потока : 484 Мбайт (84%)
2.Общее
Полное имя : FAQ. Ответы на вопросы. Вебинар [БМ]\13.11.2012_Dashkiev_Chto_takoe_1000000_za_100\vebinar_13.11.2012_part1.mp4
Формат : MPEG-4
Профиль формата : Base Media / Version 2
Идентификатор кодека : mp42
Размер файла : 126 Мбайт
Продолжительность : 24 м.
Режим общего битрейта : Переменный
Общий поток : 724 Кбит/сек
Дата кодирования : UTC 2012-12-13 15:49:46
Дата пометки : UTC 2012-12-13 15:49:49
©TIM : 00:00:00:00
©TSC : 25
©TSZ : 1

Видео
Идентификатор : 1
Формат : AVC
Формат/Информация : Advanced Video Codec
Профиль формата : High@L3.1
Параметр CABAC формата : Да
Параметр ReFrames формата : 3 кадра
Идентификатор кодека : avc1
Идентификатор кодека/Информация : Advanced Video Coding
Продолжительность : 24 м.
Вид битрейта : Постоянный
Битрейт : 600 Кбит/сек
Ширина : 854 пикселя
Высота : 480 пикселей
Соотношение сторон : 16:9
Режим частоты кадров : Постоянный
Частота кадров : 25,000 кадров/сек
Стандарт вещания : PAL
Цветовое пространство : YUV
Субдискретизация насыщенности : 4:2:0
Битовая глубина : 8 бит
Тип развёртки : Прогрессивная
Бит/(Пиксели*Кадры) : 0.059
Размер потока : 104 Мбайт (82%)
Язык : English
Дата кодирования : UTC 2012-12-13 15:49:46
Дата пометки : UTC 2012-12-13 15:49:46
Основные цвета : BT.709
Характеристики трансфера : BT.709
Коэффициенты матрицы : BT.709
colour_range : Limited

Аудио
Идентификатор : 2
Формат : AAC
Формат/Информация : Advanced Audio Codec
Профиль формата : LC
Идентификатор кодека : 40
Продолжительность : 24 м.
Продолжительность оригинала : 24 м.
Вид битрейта : Переменный
Битрейт : 125 Кбит/сек
Максимальный битрейт : 199 Кбит/сек
Каналы : 2 канала
Расположение каналов : Front: L R
Частота : 48,0 КГц
Метод сжатия : С потерями
Размер потока : 21,8 Мбайт (17%)
Размер потока оригинала : 21,8 Мбайт (17%)
Язык : English
Дата кодирования : UTC 2012-12-13 15:49:46
Дата пометки : UTC 2012-12-13 15:49:46
mdhd_Duration : 1460928
3.Общее
Полное имя : Аудиозаписи_Интенсив и Коучинг\Coaching 01\01.mp4
Формат : MPEG-4
Профиль формата : Base Media
Идентификатор кодека : isom
Размер файла : 9,32 Мбайт
Продолжительность : 10 м.
Режим общего битрейта : Постоянный
Общий поток : 129 Кбит/сек
Дата записи : 2012-11-29 18:43
Программа кодирования : Lavf53.31.100

Аудио
Идентификатор : 1
Формат : AAC
Формат/Информация : Advanced Audio Codec
Профиль формата : LC
Идентификатор кодека : 40
Продолжительность : 10 м.
Вид битрейта : Постоянный
Битрейт : 128 Кбит/сек
Каналы : 2 канала
Расположение каналов : Front: L R
Частота : 44,1 КГц
Метод сжатия : С потерями
Размер потока : 9,22 Мбайт (99%)
4.Общее
Полное имя : Библия продающего сайта(2013)\lesson_1.mp4
Формат : MPEG-4
Профиль формата : Base Media / Version 2
Идентификатор кодека : mp42
Размер файла : 120 Мбайт
Продолжительность : 4 м. 11 с.
Режим общего битрейта : Переменный
Общий поток : 4012 Кбит/сек
Дата кодирования : UTC 2013-04-02 12:30:00
Дата пометки : UTC 2013-04-02 12:30:04
©TIM : 00:00:00:00
©TSC : 25
©TSZ : 1

Видео
Идентификатор : 1
Формат : AVC
Формат/Информация : Advanced Video Codec
Профиль формата : High@L5.1
Параметр CABAC формата : Да
Параметр ReFrames формата : 3 кадра
Параметр GOP формата : M=3, N=33
Идентификатор кодека : avc1
Идентификатор кодека/Информация : Advanced Video Coding
Продолжительность : 4 м. 11 с.
Битрейт : 3878 Кбит/сек
Ширина : 1280 пикселей
Высота : 720 пикселей
Соотношение сторон : 16:9
Режим частоты кадров : Постоянный
Частота кадров : 25,000 кадров/сек
Стандарт вещания : PAL
Цветовое пространство : YUV
Субдискретизация насыщенности : 4:2:0
Битовая глубина : 8 бит
Тип развёртки : Прогрессивная
Бит/(Пиксели*Кадры) : 0.168
Размер потока : 116 Мбайт (97%)
Язык : English
Дата кодирования : UTC 2013-04-02 12:30:00
Дата пометки : UTC 2013-04-02 12:30:00
Основные цвета : BT.709
Характеристики трансфера : BT.709
Коэффициенты матрицы : BT.709
colour_range : Limited

Аудио
Идентификатор : 2
Формат : AAC
Формат/Информация : Advanced Audio Codec
Профиль формата : LC
Идентификатор кодека : 40
Продолжительность : 4 м. 11 с.
Продолжительность оригинала : 4 м. 11 с.
Вид битрейта : Переменный
Битрейт : 125 Кбит/сек
Максимальный битрейт : 208 Кбит/сек
Каналы : 2 канала
Расположение каналов : Front: L R
Частота : 48,0 КГц
Метод сжатия : С потерями
Размер потока : 3,75 Мбайт (3%)
Размер потока оригинала : 3,75 Мбайт (3%)
Язык : English
Дата кодирования : UTC 2013-04-02 12:30:00
Дата пометки : UTC 2013-04-02 12:30:00
mdhd_Duration : 251051
5.Общее
Полное имя : Бизнес Молодость - Марафон вебинаров_2013г\Вебинар 1_ Выбор ниш on Livestream.FLV
Формат : Flash Video
Размер файла : 532 Мбайт
Продолжительность : 1 ч. 50 м.
Общий поток : 674 Кбит/сек
_session : AQDZSVpYLiFIBJHdDFE/Nusa147z05ihgNskHuxLwiEkfGGI3MrBblVUuPZLBN0S/HeG7ElY
_tat : 6626.947
_dvrWindow : -1.000
_timeOfLastTAT : 1359797649.876
_streamType : 3.000
_isLive : No
_switchFail : No
_streamName : events/00000000001be416/b635b693-4b43-44b9-8f68-d44851cc9ea5_,19,67,8.mp4.csmil_0_1@15
_transferToken : NPPKnPtF
_edgeVersion : 6.10.0
_edgeIP : 46.33.72.4
_playerIP : 217.73.90.88
_timeBase : 5.099

Видео
Формат : AVC
Формат/Информация : Advanced Video Codec
Профиль формата : Main@L4.1
Параметр CABAC формата : Да
Параметр ReFrames формата : 1 кадр
Параметр GOP формата : M=1, N=60
Идентификатор кодека : 7
Продолжительность : 1 ч. 50 м.
Битрейт : 535 Кбит/сек
Ширина : 768 пикселей
Высота : 432 пикселя
Соотношение сторон : 16:9
Режим частоты кадров : Постоянный
Частота кадров : 30,000 кадров/сек
Цветовое пространство : YUV
Субдискретизация насыщенности : 4:2:0
Битовая глубина : 8 бит
Тип развёртки : Прогрессивная
Бит/(Пиксели*Кадры) : 0.054
Размер потока : 422 Мбайт (79%)

Аудио
Формат : AAC
Формат/Информация : Advanced Audio Codec
Профиль формата : LC
Идентификатор кодека : 10
Продолжительность : 1 ч. 50 м.
Битрейт : 128 Кбит/сек
Каналы : 2 канала
Расположение каналов : Front: L R
Частота : 44,1 КГц
Метод сжатия : С потерями
Размер потока : 101 Мбайт (19%)
У вас нет необходимых прав для просмотра вложений в этом сообщении.