Шимон Перес: «Цена победы чудовищна, результаты — блестящие» МГИМО [2010 г., Лекция, CamRip]

Открытие, развитие и стратегия введения бизнеса.
Торрент Сидеров Личеров Размер
torrent_3046521.torrent
0 1 388.83 МБ
Аватара пользователя
Stepan
Администратор
Сообщения: 52267
Зарегистрирован: 05 ноя 2011, 20:36

Шимон Перес: «Цена победы чудовищна, результаты — блестящие» МГИМО [2010 г., Лекция, CamRip]

Сообщение Stepan » 19 сен 2016, 09:04

Шимон Перес: «Цена победы чудовищна, результаты — блестящие» МГИМО
Год выпуска: 2010
Страна: Россия
Жанр: Лекция
Продолжительность: 47:41
Язык: русский

Описание:
11 мая, под занавес торжеств по случаю 65-летия окончания Второй мировой войны МГИМО посетил президент Израиля Шимон Перес. Политик был в Москве с официальным визитом, присутствовал 9 мая на Красной площади на параде Победы и смог найти в своем плотном графике время на то, чтобы приехать в наш Университет. Повод более чем весомый: Ученый совет МГИМО принял решение присвоить Шимону Пересу звание почетного доктора.

Говоря о современных отношениях двух государств, ректор отметил широту тем и направлений, по которым взаимодействуют Россия и Израиль, и общность позиции двух стран по многим спорным вопросам международных отношений.

Президент Израиля — человек удивительной судьбы, талантливый политик и общественный деятель, на счету которого множество дипломатических успехов. Его миротворческая деятельность дает веские причины для присвоения звания почетного доктора МГИМО, которого, согласно статуту, могут быть удостоены только самые выдающиеся люди. После торжественной церемонии вручения диплома и мантии Шимон Перес обратился к аудитории с докторской лекцией.

Говоря об отношениях русского и еврейского народов, Шимон Перес коснулся как светлых, так и печальных страниц нашей совместной истории, не обойдя вниманием ни период правления династии Романовых, ни декрет Ленина о борьбе с антисемитизмом, ни гонения Сталина. Но главное, подчеркнул политик, то, что СССР в 1947 году стоял у истоков создания государства Израиль. Говоря о влиянии России, ее быта, культуры, жизненных ценностей на молодое государство, Шимон Перес отметил, что в сердцах репатриантов осталась память о России, русская культура в крови у израильского народа. «Репатрианты превратили крохотный Израиль в великую научную державу».

К сожалению, сказал Шимон Перес, не все смогли усвоить уроки Второй мировой. И сегодня в мире есть антисемитизм, появилась новая опасность — терроризм, растут и ширятся ядерные угрозы. Израиль порою сильнее других испытывает на себе эти современные вызовы, но даже тяжелое положение дел не мешает президенту этого государства надеяться на лучшее. «Я верю, что на Ближнем Востоке все наладится и Иерусалим вновь станет городом надежды».

По словам политика, в самое ближайшее время возобновятся переговоры с Палестиной, и российская сторона намерена принять в этом процессе самое живое участие. «Когда меня спрашивают, к чему стремится Израиль, мой ответ однозначен — к миру, — заявил Шимон Перес и продолжил — сегодня модно говорить обо всем с пессимизмом, но я не таков. Я усвоил одно: пессимисты и оптимисты умирают одинаково, но живут по-разному. Будьте же оптимистами!

Из-за плотного графика высокого гостя студенты смогли задать Шимону Пересу всего три вопроса. Первый из них касался высказанного политиком оптимизма в отношении успешности переговорного процесса по арабо-израильскому конфликту. «Я не верю в идею о столкновении цивилизаций. Есть столкновения между поколениями. Сегодня мы живем в ином мире, где молодежь приближает будущее. Я вижу колоссальный революционный процесс во всем мире, движение к новому миру без таможен и границ. Сегодня нет причин для войн, и я думаю, что мир идет к равенству. Арабский мир тоже вступит в новую эпоху, и все мои надежды сегодня — на молодежь», — прозвучал ответ политика.

Второй вопрос касался недавно созданной российско-израильской комиссии по стратегическому диалогу и возможностей для партнерства наших стран. По словам Шимона Переса, эта процедура отражает политические потребности и реальные отношения двух государств, которые давно было необходимо перевести в дипломатическую плоскость.

Наконец, последний вопрос касался перспектив развития Израиля в XXI веке. «Я думаю, что в ближайшие 10 лет произойдут самые драматичные перемены», — сказал Перес. В его представлении, новый век станет торжеством технологий, но при этом хотелось бы, чтобы людям удалось сохранить морально-нравственную основу и продолжать жить по 10 библейским заповедям.

Качество: CamRip
Формат: AVI
Видео кодек: H.264
Аудио кодек: AAC
Видео: MPEG4 Video (H264) 720x576 29.97fps [Stream 00]
Аудио: MPEG Audio Layer 3 44100Hz stereo 99kbps [Stream 01]
Format : AVI
Format/Info : Audio Video Interleave
File size : 389 MiB
Duration : 47mn 41s
Overall bit rate : 1 140 Kbps
Writing application : MEncoder Sherpya-SVN-r30075-4.2.5
Writing library : MPlayer

Video
ID : 0
Format : AVC
Format/Info : Advanced Video Codec
Format profile : Baseline@L1.3
Format settings, CABAC : No
Format settings, ReFrames : 2 frames
Codec ID : h264
Duration : 47mn 41s
Bit rate : 1 024 Kbps
Width : 720 pixels
Height : 576 pixels
Display aspect ratio : 5:4
Frame rate : 29.970 fps
Standard : PAL
Color space : YUV
Chroma subsampling : 4:2:0
Bit depth : 8 bits
Scan type : Progressive
Bits/(Pixel*Frame) : 0.082
Stream size : 350 MiB (90%)
Writing library : x264 core 80 r1376 3feaec2
Encoding settings : cabac=0 / ref=2 / deblock=1:0:0 / analyse=0x1:0x111 / me=umh / subme=6 / psy=1 / psy_rd=1.0:0.0 / mixed_ref=1 / me_range=16 / chroma_me=1 / trellis=0 / 8x8dct=0 / cqm=0 / deadzone=21,11 / fast_pskip=1 / chroma_qp_offset=-2 / threads=3 / sliced_threads=0 / nr=0 / decimate=1 / mbaff=0 / constrained_intra=0 / bframes=0 / wpredp=0 / keyint=250 / keyint_min=25 / scenecut=40 / rc_lookahead=40 / rc=abr / mbtree=1 / bitrate=1024 / ratetol=1.0 / qcomp=0.60 / qpmin=10 / qpmax=51 / qpstep=4 / ip_ratio=1.40 / aq=1:1.00

Audio
ID : 1
Format : MPEG Audio
Format version : Version 1
Format profile : Layer 3
Mode : Joint stereo
Mode extension : MS Stereo
Codec ID : 55
Codec ID/Hint : MP3
Duration : 47mn 40s
Bit rate mode : Variable
Bit rate : 99.1 Kbps
Channel(s) : 2 channels
Sampling rate : 44.1 KHz
Stream size : 33.8 MiB (9%)
Alignment : Aligned on interleaves
Interleave, duration : 26 ms (0.78 video frame)
Interleave, preload duration : 458 ms
У вас нет необходимых прав для просмотра вложений в этом сообщении.