Бизнес Молодость |Юридические и бухгалтерские вопросы для начинающих бизнесменов. ч1.2 [2013, Бизнес, WEBRip, RUS] ( Веб

Открытие, развитие и стратегия введения бизнеса.
Торрент Сидеров Личеров Размер
torrent_5175616.torrent
0 0 934.15 МБ
Аватара пользователя
Stepan
Администратор
Сообщения: 52267
Зарегистрирован: 05 ноя 2011, 20:36

Бизнес Молодость |Юридические и бухгалтерские вопросы для начинающих бизнесменов. ч1.2 [2013, Бизнес, WEBRip, RUS] ( Веб

Сообщение Stepan » 19 сен 2016, 09:04

Бизнес Молодость |Юридические и бухгалтерские вопросы для начинающих бизнесменов.

Страна: Россия
Тематика: Бизнес
Тип раздаваемого материала: Видеоурок
Год выпуска: 2013
Продолжительность: 03:29:03
Язык: Русский
Перевод: Не требуется
Исполнитель: Михаил Дашкиев, Юрий Дашкиев

Качество: WEBRip
Формат: MP4
Видео кодек: MPEG-4 640x360 25fps 510 Kbps 16:9
Аудио: AAC 48.0 KHz 109 Kbps
Видео кодек: MPEG-4 640x360 25fps 516 Kbps 16:9
Аудио кодек: AAC 48.0 KHz 109 Kbps

Описание: Вебинар,Видео-лекция,Видеоурок Юридические и бухгалтерские вопросы от БМ.
1.Юридические и бухгалтерские вопросы для начинающих бизнесменов. Видео-лекция Вебинар с Михаилом Дашкиевым и Юрием Дашкиевым часть 1 02:04:56
2.Юридические и бухгалтерские вопросы для начинающих бизнесменов. Видео-лекция Вебинар с Михаилом Дашкиевым и Юрием Дашкиевым часть 2 01:24:07
Complete name :Юридические и бухгалтерские вопросы для начинающих бизнесменов. Видео-лекция Вебинар с Михаилом Дашкиевым и Юрием Дашкиевым часть 1.mp4
Format : MPEG-4
Format profile : Base Media / Version 2
Codec ID : mp42 (mp42/mp41/isom/avc1)
File size : 556 MiB
Duration : 2h 4mn
Overall bit rate mode : Variable
Overall bit rate : 622 Kbps
Encoded date : UTC 2013-04-04 15:01:17
Tagged date : UTC 2013-04-04 15:01:17

Video
ID : 1
Format : AVC
Format/Info : Advanced Video Codec
Format profile : High@L3.1
Format settings, CABAC : Yes
Format settings, ReFrames : 4 frames
Codec ID : avc1
Codec ID/Info : Advanced Video Coding
Duration : 2h 4mn
Bit rate : 510 Kbps
Width : 640 pixels
Height : 360 pixels
Display aspect ratio : 16:9
Frame rate mode : Constant
Frame rate : 25.000 fps
Color space : YUV
Chroma subsampling : 4:2:0
Bit depth : 8 bits
Scan type : Progressive
Bits/(Pixel*Frame) : 0.089
Stream size : 454 MiB (82%)
Writing library : x264 core 129 r2245 bc13772
Encoded date : UTC 2013-04-04 15:01:17
Tagged date : UTC 2013-04-04 15:01:17

Audio
ID : 2
Format : AAC
Format/Info : Advanced Audio Codec
Format profile : LC
Codec ID : 40
Duration : 2h 4mn
Source duration : 2h 4mn
Bit rate mode : Variable
Bit rate : 109 Kbps
Channel(s) : 2 channels
Channel positions : Front: L R
Sampling rate : 48.0 KHz
Frame rate : 46.875 fps (1024 spf)
Compression mode : Lossy
Stream size : 97.7 MiB (18%)
Source stream size : 97.7 MiB (18%)
Encoded date : UTC 2013-04-04 15:01:17
Tagged date : UTC 2013-04-04 15:01:17

Complete name : Юридические и бухгалтерские вопросы для начинающих бизнесменов. Видео-лекция Вебинар с Михаилом Дашкиевым и Юрием Дашкиевым часть 2.mp4
Format : MPEG-4
Format profile : Base Media / Version 2
Codec ID : mp42 (mp42/mp41/isom/avc1)
File size : 379 MiB
Duration : 1h 24mn
Overall bit rate mode : Variable
Overall bit rate : 629 Kbps
Encoded date : UTC 2013-04-04 13:59:31
Tagged date : UTC 2013-04-04 13:59:31

Video
ID : 1
Format : AVC
Format/Info : Advanced Video Codec
Format profile : High@L3.1
Format settings, CABAC : Yes
Format settings, ReFrames : 4 frames
Codec ID : avc1
Codec ID/Info : Advanced Video Coding
Duration : 1h 24mn
Bit rate : 516 Kbps
Width : 640 pixels
Height : 360 pixels
Display aspect ratio : 16:9
Frame rate mode : Constant
Frame rate : 25.000 fps
Color space : YUV
Chroma subsampling : 4:2:0
Bit depth : 8 bits
Scan type : Progressive
Bits/(Pixel*Frame) : 0.090
Stream size : 310 MiB (82%)
Writing library : x264 core 129 r2245 bc13772
Encoded date : UTC 2013-04-04 13:59:31
Tagged date : UTC 2013-04-04 13:59:31

Audio
ID : 2
Format : AAC
Format/Info : Advanced Audio Codec
Format profile : LC
Codec ID : 40
Duration : 1h 24mn
Source duration : 1h 24mn
Bit rate mode : Variable
Bit rate : 109 Kbps
Channel(s) : 2 channels
Channel positions : Front: L R
Sampling rate : 48.0 KHz
Frame rate : 46.875 fps (1024 spf)
Compression mode : Lossy
Stream size : 65.8 MiB (17%)
Source stream size : 65.8 MiB (17%)
Encoded date : UTC 2013-04-04 13:59:31
Tagged date : UTC 2013-04-04 13:59:31
У вас нет необходимых прав для просмотра вложений в этом сообщении.