Бизнес Молодость | Реальный маркетинг [2015, Бизнес, маркетинг, WEBRip, RUS] (Видеоурок)

Открытие, развитие и стратегия введения бизнеса.
Торрент Сидеров Личеров Размер
torrent_5048538.torrent
38 11 23.93 ГБ
Аватара пользователя
Stepan
Администратор
Сообщения: 52270
Зарегистрирован: 05 ноя 2011, 20:36

Бизнес Молодость | Реальный маркетинг [2015, Бизнес, маркетинг, WEBRip, RUS] (Видеоурок)

Сообщение Stepan » 19 сен 2016, 09:06

Бизнес Молодость | Реальный маркетинг

Страна: Россия
Тематика: Бизнес, маркетинг
Тип раздаваемого материала: Видеоурок
Продолжительность: 51:48:14
Год выпуска: 2015

Язык: Русский
Перевод: Не требуется

Описание: Мы, наконец, готовы к запуску отдельного направления для главной темы БМ – дисбаланса. Мы тщательно проработали каждую тему, протестировали каждый аспект и инструмент. Мы не можем назвать «Реальный маркетинг» курсом.
Это модель. Модель пути из точки А в точку Б, модель построения идеального отдела маркетинга, модель создания идеального жизненного цикла клиента, модель создания окупаемого, измеримого, управляемого потока продаж.

Доп. информация:
8 Дней
8 Занятий
Домашнее задание для каждого дня
Бонус: Запись вебинара 11 друзей маркетинга от БМ

Качество: WEBRip
Формат: MP4
Видео кодек: VC-1
Аудио кодек: AAC
Видео: MPEG4 Video (H264) 1920x1080 25fps 799kbps
Видео: MPEG4 Video (H264) 1280x718 30fps 800kbps
Видео: MPEG4 Video (H264) 1920x1080 25fps 879kbps
Видео: MPEG4 Video (H264) 1280x720 25fps 350kbps
Видео: MPEG4 Video (H264) 1280x720 25fps 1136kbps
Видео: MPEG4 Video (H264) 1280x720 29.97fps 2689kbps
Аудио: AAC 48000Hz stereo 128kbps
Аудио: AAC 48000Hz stereo 164kbps
Аудио: AAC 48000Hz stereo 161kbps
Аудио: AAC 44100Hz stereo 192kbps
Аудио: AAC 44100Hz stereo 191kbps
General
Complete name :
Format : MPEG-4
Format profile : Base Media / Version 2
Codec ID : mp42
File size : 2.54 GiB
Duration : 6h 28mn
Overall bit rate mode : Variable
Overall bit rate : 934 Kbps
Writing application : HandBrake 0.10.1 2015030800

Video
ID : 1
Format : AVC
Format/Info : Advanced Video Codec
Format profile : Main@L4.0
Format settings, CABAC : Yes
Format settings, ReFrames : 4 frames
Codec ID : avc1
Codec ID/Info : Advanced Video Coding
Duration : 6h 28mn
Bit rate : 800 Kbps
Width : 1 920 pixels
Height : 1 080 pixels
Display aspect ratio : 16:9
Frame rate mode : Constant
Frame rate : 25.000 fps
Color space : YUV
Chroma subsampling : 4:2:0
Bit depth : 8 bits
Scan type : Progressive
Bits/(Pixel*Frame) : 0.015
Stream size : 2.17 GiB (86%)
Writing library : x264 core 142 r2479 dd79a61
Encoding settings : cabac=1 / ref=1 / deblock=1:0:0 / analyse=0x1:0x111 / me=hex / subme=2 / psy=1 / psy_rd=1.00:0.00 / mixed_ref=0 / me_range=16 / chroma_me=1 / trellis=0 / 8x8dct=0 / cqm=0 / deadzone=21,11 / fast_pskip=1 / chroma_qp_offset=0 / threads=9 / lookahead_threads=3 / sliced_threads=0 / nr=0 / decimate=1 / interlaced=0 / bluray_compat=0 / constrained_intra=0 / bframes=3 / b_pyramid=2 / b_adapt=1 / b_bias=0 / direct=1 / weightb=1 / open_gop=0 / weightp=1 / keyint=250 / keyint_min=25 / scenecut=40 / intra_refresh=0 / rc_lookahead=10 / rc=abr / mbtree=1 / bitrate=800 / ratetol=1.0 / qcomp=0.60 / qpmin=0 / qpmax=69 / qpstep=4 / vbv_maxrate=20000 / vbv_bufsize=25000 / nal_hrd=none / filler=0 / ip_ratio=1.40 / aq=1:1.00
Color primaries : BT.709
Transfer characteristics : BT.709
Matrix coefficients : BT.709

Audio
ID : 2
Format : AAC
Format/Info : Advanced Audio Codec
Format profile : LC
Codec ID : 40
Duration : 6h 28mn
Bit rate mode : Variable
Bit rate : 129 Kbps
Channel(s) : 2 channels
Channel positions : Front: L R
Sampling rate : 48.0 KHz
Compression mode : Lossy
Stream size : 358 MiB (14%)
Title : Stereo
Language : English
У вас нет необходимых прав для просмотра вложений в этом сообщении.