Бизнес Молодость | Реальный инстаграм [2016, бизнес, маркетинг, инстаграм, WEBRip, RUS] (Видеоурок)

Открытие, развитие и стратегия введения бизнеса.
Торрент Сидеров Личеров Размер
torrent_5177091.torrent
7 0 7.59 ГБ
Аватара пользователя
Stepan
Администратор
Сообщения: 52269
Зарегистрирован: 05 ноя 2011, 20:36

Бизнес Молодость | Реальный инстаграм [2016, бизнес, маркетинг, инстаграм, WEBRip, RUS] (Видеоурок)

Сообщение Stepan » 19 сен 2016, 09:06

Бизнес Молодость | Реальный инстаграм

Страна: Россия
Тематика: бизнес, маркетинг, инстаграм
Тип раздаваемого материала: Видеоурок
Продолжительность: ~30:00:00
Год выпуска: 2016

Язык: Русский
Перевод: Не требуется

Описание: Массовый онлайн-курс по созданию постоянного потока клиентов из Инстаграм.
8 практических занятий с пошаговыми заданиями в онлайн-платформе

Доп. информация: В раздаче присутствуют чек-листы, файлы презентаций, и прочие текстовые материалы из курса.

Качество: WEBRip
Формат: MP4
Видео кодек: H.264
Аудио кодек: AAC
Видео:
MPEG4 Video (H264) 768x432 30fps 456kbps
MPEG4 Video (H264) 640x360 25fps 523kbps
MPEG4 Video (H264) 1280x688 19fps 602kbps
MPEG4 Video (H264) 1280x720 30fps 2273kbps
Аудио:
AAC 44100Hz stereo 128kbps
AAC 48000Hz stereo 112kbps
AAC 44100Hz mono 143kbps
AAC 48000Hz stereo 106kbps
General
Complete name :
Format : MPEG-4
Codec ID : M4V
File size : 271 MiB
Duration : 15mn 51s
Overall bit rate mode : Variable
Overall bit rate : 2 385 Kbps
Movie name : Proyecto sin título
Movie name/More : Este vídeo es sobre Proyecto sin título
Album/Performer : Mikhail Nazarov
Performer : Mikhail Nazarov
Description : Este vídeo es sobre Proyecto sin título
Encoded date : UTC 2015-10-20 08:24:13
Tagged date : UTC 2015-10-20 08:29:35
Keyword : Gravity Tool screencast

Video
ID : 2
Format : AVC
Format/Info : Advanced Video Codec
Format profile : High@L3.1
Format settings, CABAC : Yes
Format settings, ReFrames : 2 frames
Codec ID : avc1
Codec ID/Info : Advanced Video Coding
Duration : 15mn 51s
Bit rate mode : Variable
Bit rate : 2 274 Kbps
Maximum bit rate : 768 Kbps
Width : 1 280 pixels
Height : 720 pixels
Display aspect ratio : 16:9
Frame rate mode : Constant
Frame rate : 30.000 fps
Original frame rate : 25.000 fps
Color space : YUV
Chroma subsampling : 4:2:0
Bit depth : 8 bits
Scan type : Progressive
Bits/(Pixel*Frame) : 0.082
Stream size : 258 MiB (95%)
Title : Core Media Video
Encoded date : UTC 2015-10-20 08:24:13
Tagged date : UTC 2015-10-20 08:29:35
Color primaries : BT.709
Transfer characteristics : BT.709
Matrix coefficients : BT.709

Audio
ID : 1
Format : AAC
Format/Info : Advanced Audio Codec
Format profile : LC
Codec ID : 40
Duration : 15mn 51s
Source duration : 15mn 51s
Bit rate mode : Constant
Bit rate : 107 Kbps
Nominal bit rate : 128 Kbps
Channel(s) : 2 channels
Channel positions : Front: L R
Sampling rate : 48.0 KHz
Compression mode : Lossy
Stream size : 12.1 MiB (4%)
Source stream size : 12.1 MiB (4%)
Title : Core Media Audio
Language : Spanish
Encoded date : UTC 2015-10-20 08:24:13
Tagged date : UTC 2015-10-20 08:29:35
У вас нет необходимых прав для просмотра вложений в этом сообщении.