Модель везения в Уфе. Презентация. Денис Бурхаев [2009 г., DVDRip]

Торрент Сидеров Личеров Размер
torrent_3392027.torrent
0 1 257.54 МБ
Аватара пользователя
Stepan
Администратор
Сообщения: 52267
Зарегистрирован: 05 ноя 2011, 20:36

Модель везения в Уфе. Презентация. Денис Бурхаев [2009 г., DVDRip]

Сообщение Stepan » 19 сен 2016, 23:05

[H.264] Модель везения в Уфе. Презентация. Денис Бурхаев [2009 г., DVDRip]

Страна: Россия
Тематика: Популярная психология
Тип раздаваемого материала: Видеоурок
Продолжительность: 100 мин
Год выпуска: 2009
Язык: Русский
Перевод: Не требуется

Описание: Основные моменты тренинга "Модель везения", который проходил в Уфе. Модель Везения – это набор определенных мыслительных навыков, включающих навыки правильной визуализации и правильного целеполагания.

Доп. информация: Пережата эта раздача:
Качество почти такое же. Но вес в 6 раз меньше!
General
Complete name : H:\Модель везения в Уфе. Презентация.avi
Format : AVI
Format/Info : Audio Video Interleave
File size : 258 MiB
Duration : 1h 40mn
Overall bit rate : 359 Kbps
Writing application : Lavf52.85.0

Video
ID : 0
Format : AVC
Format/Info : Advanced Video Codec
Format profile : Main@L3.0
Format settings, CABAC : Yes
Format settings, ReFrames : 2 frames
Codec ID : H264
Duration : 10s 0ms
Bit rate : 250 Kbps
Width : 640 pixels
Height : 480 pixels
Display aspect ratio : 4:3
Frame rate mode : Variable
Frame rate : 30.000 fps
Color space : YUV
Chroma subsampling : 4:2:0
Bit depth : 8 bits
Scan type : Progressive
Bits/(Pixel*Frame) : 0.027
Stream size : 179 MiB (70%)
Writing library : x264 core 110
Encoding settings : cabac=1 / ref=1 / deblock=1:0:0 / analyse=0x1:0x131 / me=hex / subme=5 / psy=1 / psy_rd=0.00:0.00 / mixed_ref=0 / me_range=16 / chroma_me=1 / trellis=0 / 8x8dct=0 / cqm=0 / deadzone=21,11 / fast_pskip=1 / chroma_qp_offset=0 / threads=3 / sliced_threads=0 / nr=0 / decimate=1 / interlaced=0 / constrained_intra=0 / bframes=3 / b_pyramid=0 / b_adapt=1 / b_bias=0 / direct=3 / weightb=1 / open_gop=0 / weightp=0 / keyint=250 / keyint_min=25 / scenecut=40 / intra_refresh=0 / rc_lookahead=40 / rc=2pass / mbtree=1 / bitrate=250 / ratetol=1.0 / qcomp=0.60 / qpmin=10 / qpmax=51 / qpstep=4 / cplxblur=20.0 / qblur=0.5 / vbv_maxrate=10000 / vbv_bufsize=10000 / ip_ratio=1.40 / aq=1:1.00 / nal_hrd=none

Audio
ID : 1
Format : MPEG Audio
Format version : Version 2
Format profile : Layer 3
Codec ID : 55
Codec ID/Hint : MP3
Duration : 1h 40mn
Bit rate mode : Constant
Bit rate : 96.0 Kbps
Channel(s) : 2 channels
Sampling rate : 22.05 KHz
Compression mode : Lossy
Stream size : 68.8 MiB (27%)
Alignment : Aligned on interleaves
Interleave, duration : 26 ms (0.78 video frame)
Writing library : LAME3.98.4
Качество : DVDRip
Формат: AVI
Видео кодек: H.264
Аудио кодек: MP3
Видео: H.264, 640x480, 4:3, 250 Kbps, 30 fps
Аудио: MP3, 98 Kbps, 22.05 kHz, 2 ch




У вас нет необходимых прав для просмотра вложений в этом сообщении.