Яцек Пашковский о методе Фельденкрайза / Jacek Paszkowski on the Feldenkrais Method (TEDx Krakow) [2010, Выступление, со

Торрент Сидеров Личеров Размер
torrent_3629166.torrent
3 1 65.89 МБ
Аватара пользователя
Stepan
Администратор
Сообщения: 52267
Зарегистрирован: 05 ноя 2011, 20:36

Яцек Пашковский о методе Фельденкрайза / Jacek Paszkowski on the Feldenkrais Method (TEDx Krakow) [2010, Выступление, со

Сообщение Stepan » 19 сен 2016, 23:11

Яцек Пашковский о методе Фельденкрайза / Jacek Paszkowski on the Feldenkrais Method

Страна: Польша
Тематика: Выступление, соматика, ТОП
Продолжительность: 00:18
Год выпуска: 2010

Язык: Английский
Перевод: Субтитры
Язык субтитров: Русский

Описание: Выступление Яцека Пашковского (Jacek Paszkowski) на TEDx Krakow в 2010 году.
Яцек Пашковский, сертифицированный Фельденкрайз-практик, член североамериканской гильдии Фельденкрайза с 2000 г.
Основатель Академии осознанного движения в Варшаве.

Доп. информация: Переведено на http://translated.by. Переводчики: vlad8, Ravigal, oZis

Ресурсы на русском по методу Фельденкрайза
http://feldenkrais.ruсайт о методе Фельденкрайза и его основателе
http://feldenkrais.ucoz.ruсайт о методе Фельденкрайза с форумом
http://vlad8.com/feldenkrais новый ресурс на русском о методе Фельденкрайза
[url=http://ru_feldenkrais.livejournal.com/]http://ru_feldenkrais.livejournal.com/[/url] - ЖЖ сообщество о методе Фельденкрайза

Другие фильмы по методу Фельденкрайза
- на русском

New! - на русском (док. фильм)
New!



New!
New!

Качество: WEBRip
Формат: MP4
Видео кодек: VC-1
Аудио кодек: AAC
Видео: CCV1 480x266 25.00fps 510 Kbps
Аудио: AAC 44100Hz stereo Variable 414 Kbps
Код:

Код: Выделить всё

Complete name                    : TEDxKrakow-Jacek Paszkowski.mp4
Format                           : MPEG-4
Format profile                   : Base Media / Version 2
Codec ID                         : mp42
File size                        : 65.8 MiB
Duration                         : 18mn 1s
Overall bit rate                 : 510 Kbps
Encoded date                     : UTC 2010-11-05 02:31:38
Tagged date                      : UTC 2010-11-05 02:31:38
gsst                             : 0
gstd                             : 1082141
gssd                             : BADC21305HH1309030621220897
gshh                             : o-o.preferred.fra02s09.v5.lscache1.c.youtube.com

Video
ID                               : 2
Format                           : AVC
Format/Info                      : Advanced Video Codec
Format profile                   : Baseline@L2.1
Format settings, CABAC           : No
Format settings, ReFrames        : 1 frame
Codec ID                         : avc1
Codec ID/Info                    : Advanced Video Coding
Duration                         : 18mn 1s
Bit rate mode                    : Variable
Bit rate                         : 414 Kbps
Maximum bit rate                 : 1 682 Kbps
Width                            : 480 pixels
Height                           : 266 pixels
Display aspect ratio             : 16:9
Frame rate mode                  : Constant
Frame rate                       : 25.000 fps
Color space                      : YUV
Chroma subsampling               : 4:2:0
Bit depth                        : 8 bits
Scan type                        : Progressive
Bits/(Pixel*Frame)               : 0.130
Stream size                      : 53.4 MiB (81%)
Title                            : (C) 2007 Google Inc. v08.13.2007.
Encoded date                     : UTC 2010-11-05 02:31:39
Tagged date                      : UTC 2010-11-05 02:31:40

Audio
ID                               : 1
Format                           : AAC
Format/Info                      : Advanced Audio Codec
Format version                   : Version 4
Format profile                   : LC
Format settings, SBR             : No
Codec ID                         : 40
Duration                         : 18mn 1s
Bit rate mode                    : Variable
Bit rate                         : 93.5 Kbps
Maximum bit rate                 : 137 Kbps
Channel(s)                       : 2 channels
Channel positions                : Front: L R
Sampling rate                    : 44.1 KHz
Stream size                      : 12.1 MiB (18%)
Title                            : (C) 2007 Google Inc. v08.13.2007.
Encoded date                     : UTC 2010-11-05 02:31:38
Tagged date                      : UTC 2010-11-05 02:31:40
У вас нет необходимых прав для просмотра вложений в этом сообщении.