Всё намного проще (серии 1-20 из 20) (Семён Винокур) [2013-2014, телепередача, WEB-DLRip, AVС]

Торрент Сидеров Личеров Размер
torrent_4759034.torrent
1 0 854.79 МБ
Аватара пользователя
Stepan
Администратор
Сообщения: 52357
Зарегистрирован: 05 ноя 2011, 20:36

Всё намного проще (серии 1-20 из 20) (Семён Винокур) [2013-2014, телепередача, WEB-DLRip, AVС]

Сообщение Stepan » 19 сен 2016, 23:15

Всё намного проще / серии 1-20 из 20

Название: Всё намного проще
Год выпуска: 2013-2014
Страна: Россия, Израиль
Производство: «Открытый телеканал»
Источник Web: www.opentv.tv
Жанр: телепередача
Продолжительность: 01:30:24
Перевод: оригинал (русский язык)
Субтитры: нет
В ролях: Рина Корчминский, Юлии Милованов
Режиссёр: Семён Винокур
Описание: Советы психолога Юлии Милованов на каждый день.
Качество: WEB-DLRip
Формат: MP4
Видеокодек: MPEG-4 AVC (H.264)
Аудиокодек: ACC
Видео: 1280 x 720, 25,000 fps, ~ 1 200 Kbps, ~ 0.050 bit/pixel
Аудио: 44,1 kHz, 2 ch, ~ 128 kb/s

Код: Выделить всё

Общее
Полное имя                               : teleprogramma.Vsjo_namnogo_proshhe.2013-2014.WEB-DLRip.Rus.Mp4\Всё_намного_проще-Вредные_привычки_у_ребёнка-что_с_ними_делать.mp4
Формат                                   : MPEG-4
Профиль формата                          : Base Media
Идентификатор кодека                     : isom
Размер файла                             : 73,9 Мбайт
Продолжительность                        : 7 м. 50 с.
Режим общего битрейта                    : Переменный
Общий поток                              : 1316 Кбит/сек

Видео
Идентификатор                            : 1
Формат                                   : AVC
Формат/Информация                        : Advanced Video Codec
Профиль формата                          : Baseline@L3.1
Параметр CABAC формата                   : Нет
Параметр ReFrames формата                : 1 кадр
Идентификатор кодека                     : avc1
Идентификатор кодека/Информация          : Advanced Video Coding
Продолжительность                        : 7 м. 50 с.
Битрейт                                  : 1200 Кбит/сек
Ширина                                   : 1280 пикселей
Высота                                   : 720 пикселей
Соотношение сторон                       : 16:9
Режим частоты кадров                     : Постоянный
Частота кадров                           : 25,000 кадров/сек
Цветовое пространство                    : YUV
Субдискретизация насыщенности            : 4:2:0
Битовая глубина                          : 8 бит
Тип развёртки                            : Прогрессивная
Бит/(Пиксели*Кадры)                      : 0.052
Размер потока                            : 66,5 Мбайт (90%)
Библиотека кодирования                   : x264 core 112

Аудио
Идентификатор                            : 2
Формат                                   : AAC
Формат/Информация                        : Advanced Audio Codec
Профиль формата                          : LC
Идентификатор кодека                     : 40
Продолжительность                        : 7 м. 50 с.
Вид битрейта                             : Переменный
Битрейт                                  : 127 Кбит/сек
Каналы                                   : 2 канала
Расположение каналов                     : Front: L R
Частота                                  : 44,1 КГц
Метод сжатия                             : С потерями
Размер потока                            : 7,14 Мбайт (10%)

01. Всё_намного_проще-Вредные_привычки_у_ребёнка-что_с_ними_делать - (07:50)
02. Всё_намного_проще-Гиперактивные_дети-риталин - (02:19)
03. Всё_намного_проще-Гиперактивный_ребёнок - (05:07)
04. Всё_намного_проще-Гнев_ребёнка - (06:22)
05. Всё_намного_проще-Как_доводить_начатое_до_конца - (03:11)
06. Всё_намного_проще-Как_запрещать_ребёнку_не_запрещая - (03:14)
07. Всё_намного_проще-Как_научить_ребёнка_выполнять_просьбы_без_напоминания - (04:39)
08. Всё_намного_проще-Как_научиться_слушать_ребёнка - (04:04)
09. Всё_намного_проще-Как_победить_лень - (02:44)
10. Всё_намного_проще-Как_помочь_ребёнку_быстро_сделать_уроки - (03:11)
11. Всё_намного_проще-Как_правильно_выражать_недовольство - (05:19)
12. Всё_намного_проще-Как_создать_мотивацию_ребёнку - (02:58)
13. Всё_намного_проще-Как_узнать,что_тревожит_ребёнка - (04:35)
14. Всё_намного_проще-Капризный_ребёнок-что_делать - (04:57)
15. Всё_намного_проще-Правильная_речь_у_ребёнка - (05:39)
16. Всё_намного_проще-Риталин-хорошо_это_или_плохо - (02:49)
17. Всё_намного_проще-Страх_перед_экзаменом - (08:15)
18. Всё_намного_проще-Что_делать,если_ребёнок_ведёт_себя_плохо - (01:52)
19. Всё_намного_проще-Что_происходит_с_ребёнком_в_3_года - (02:55)
20. Всё_намного_проще-Чувство_вины-что_с_ним_делать - (08:14)

Внимание! Раздача ведётся путём добавления новых выпусков; при каждом добавлении создаётся новый торрент. Чтобы начать докачку нового выпуска, пользователям необходимо сделать следующее:
(1) остановить скачивание,
(2) удалить старый торрент у себя из клиента (старые серии удалять не надо),
(3) скачать новый торрент и запустить его у себя в клиенте вместо старого, при этом указать клиенту путь в старую папку куда и должно происходить скачивание новых выпусков.
Ваш клиент при этом должен произвести хеширование (проверку) старой папки (если не производит сам - помогите ему сделать это). В результате он будет докачивать только те выпуски, которых у Вас ещё нет. Старые выпуски при этом не удаляются, а продолжают раздаваться!
Eсли Вы уже удалили старые выпуски, то предотвратить их повторную закачку можно, сняв галочки в соответствующих местах при запуске нового торрента. По возможности, желательно не удалять старые выпуски как можно дольше, чтобы релизёр не только продолжал раздавать старые выпуски, но и смог сконцентрироваться на новых.

О нас

Добро пожаловать!

Мы создали «Открытый телеканал» для того, чтобы способствовать позитивным переменам в жизни. Поэтому в наших передачах мы говорим практически о 3 вещах: что представляет собой окружающий нас сегодня мир, что представляем собой мы сами и что нам делать для того, чтобы прийти к гармонии – с самими собой и с сегодняшним глобальным миром.
Надеемся, что не разочаруем. Мы абсолютно убеждены, что позитивные перемены в обществе не произойдут по приказу “сверху”. Они возможны, только если их захочет само общество, то есть мы с вами. Стоит лишь 10% из нас прийти к согласию и оно неизбежно будет принято всем обществом, включая правительство.
Так что, наша судьба находится в наших же руках. Не будем её выпускать.
И ещё. Наш телеканал – некоммерческий проект. Он создан и функционирует исключительно благодаря волонтерам. Всё, что вы видите на нём, создано, как раньше выражались, в свободное от основной работы время.

Ну, и использование материалов сайта на других ресурсах разрешается без ограничения, но с обязательной гиперссылкой на «Открытый телеканал».

Искренне ваши, Общественное движение “Арвут”
У вас нет необходимых прав для просмотра вложений в этом сообщении.