Эффективная презентация (Ольга Юрковская) [2013, публичные выступления, CAMRip, RUS]

Торрент Сидеров Личеров Размер
torrent_4527466.torrent
7 2 147.8 МБ
Аватара пользователя
Stepan
Администратор
Сообщения: 52270
Зарегистрирован: 05 ноя 2011, 20:36

Эффективная презентация (Ольга Юрковская) [2013, публичные выступления, CAMRip, RUS]

Сообщение Stepan » 19 сен 2016, 23:46

Эффективная презентация (Ольга Юрковская)

Страна: Россия
Тематика: публичные выступления
Тип раздаваемого материала: мастер-класс
Продолжительность: 00:58:00
Год выпуска: 2013

Язык: Русский

Описание:

Эффективная презентация - как легко убедить заказчика - мастер-класс бизнес-консультанта Ольги Юрковской,
Санкт-Петербург, 25 мая 2013 года

Мастер-класс посвящен изучению элементов эффективной презентации:

✓ Как быть настолько убедительным, чтобы с вами соглашались?
✓ Как точно и чётко донести слушателям ваше видение проекта?
✓ Как показать ценность проекта?
✓ Какие ваши аргументы будут услышаны?
✓ Как легко убедить заказчика принять ваш проект?

Качество: CAMRip
Формат: MP4
Видео кодек: H.264
Аудио кодек: AAC
Видео: 480×360 (4:3), 25 fps, 300 kbps
Аудио: 44.1 kHz, 2 channel, 96 kbps
Формат : MPEG-4
Профиль формата : Base Media / Version 2

Видео
Идентификатор : 1
Формат : AVC
Формат/Информация : Advanced Video Codec
Профиль формата : Baseline@L2.1
Параметр CABAC формата : Нет
Параметр ReFrames формата : 1 кадр
Идентификатор кодека : avc1
Идентификатор кодека/Информация : Advanced Video Coding
Продолжительность : 12 м.
Битрейт : 262 Кбит/сек
Максимальный битрейт : 764 Кбит/сек
Ширина : 480 пикселей
Высота : 360 пикселей
Соотношение сторон : 4:3
Режим частоты кадров : Постоянный
Частота кадров : 25,000 кадров/сек
Цветовое пространство : YUV
Субдискретизация насыщенности : 4:2:0
Битовая глубина : 8 бит
Тип развёртки : Прогрессивная
Бит/(Пиксели*Кадры) : 0.061
Размер потока : 22,5 Мбайт (73%)

Аудио
Идентификатор : 2
Формат : AAC
Формат/Информация : Advanced Audio Codec
Профиль формата : LC
Идентификатор кодека : 40
Продолжительность : 12 м.
Вид битрейта : Переменный
Битрейт : 96,0 Кбит/сек
Максимальный битрейт : 103 Кбит/сек
Каналы : 2 канала
Расположение каналов : Front: L R
Частота : 44,1 КГц
Метод сжатия : С потерями
Размер потока : 8,25 Мбайт (27%)
У вас нет необходимых прав для просмотра вложений в этом сообщении.