Видео


Сообщение

Видео Уход за кожей вокруг глаз от SHISEIDO [2009 г., Уход за кожей, DVDRip, RUS]

Сообщение Нюша » 10 май 2012, 23:18

Уход за кожей вокруг глаз от SHISEIDO
Год выпуска: 2009
Страна: Россия
Тематика: Уход за кожей
Продолжительность: 2 мин 45 сек
Язык: Русский
Перевод: Не требуется
Описание: Константин Бойко, ведущий косметолог компании SHISEIDO, рассказывает вам, как правильно ухаживать за чувствительной кожей вокруг глаз.
Качество: DVDRip
Формат: AVI
Видео кодек: Microsoft MPEG-4 v2
Аудио кодек: MPEG Layer 3
Видео: 720x576 (1.25:1), 25 fps, Microsoft MPEG-4 Video Codec V2 ~2068 kbps avg, 0.20 bit/pixel
Аудио: 22.050 kHz, MPEG Layer 3, 2 ch, ~64.00 kbps avg
Отчет MediaInfo
General
Complete name : G:\Уход за кожей глаз от Shiseido.avi
Format : AVI
Format/Info : Audio Video Interleave
File size : 42.1 MiB
Duration : 5mn 29s
Overall bit rate : 1 072 Kbps
Writing application : Lavf52.0.0
Video
ID : 0
Format : MPEG-4 Visual
Codec ID : MP42
Codec ID/Info : Microsoft MPEG-4 v2 (pre-standard)
Codec ID/Hint : Microsoft
Duration : 2mn 44s
Bit rate : 2 069 Kbps
Width : 720 pixels
Height : 576 pixels
Display aspect ratio : 5:4
Frame rate : 25.000 fps
Standard : PAL
Bits/(Pixel*Frame) : 0.200
Stream size : 40.6 MiB (96%)
Audio
ID : 1
Format : MPEG Audio
Format version : Version 2
Format profile : Layer 3
Mode : Joint stereo
Mode extension : MS Stereo
Codec ID : 55
Codec ID/Hint : MP3
Duration : 5mn 29s
Bit rate mode : Constant
Bit rate : 64.0 Kbps
Channel(s) : 2 channels
Sampling rate : 22.05 KHz
Stream size : 1.26 MiB (3%)
Alignment : Aligned on interleaves
Interleave, duration : 26 ms (0.65 video frame)
Writing library : LAME3.96.1
Скриншоты

Скринлисты

Постеры

Соцсети

 

Статистика

Автор: Нюша
Добавлен: 10 май 2012, 23:18
Размер: 42.06 МБ
Размер: 44 105 982 байт
Сидеров: 28
Личеров: 4
Скачали: 1
Здоровье: 100%
Раздающих: 100%
Скорость скачивания: 0 байт/сек
Скорость раздачи: 0 байт/сек
Последний сидер: 29 дней 20 часов 3 минуты 12 секунд назад
Последний личер: 29 дней 20 часов 3 минуты 12 секунд назад
Приватный: Нет (DHT включён)
Скачать торрент
Скачать торрент
[ Размер 13.71 КБ / Просмотров 11 ]

Поделиться



Вернуться в Уход за кожей