Уход за кожей вокруг глаз от SHISEIDO [2009 г., Уход за кожей, DVDRip, RUS]

Маски, уход за телом, чистая и здоровая кожа

<t>Оценка торрента</t>

5
0
Голосов нет
4
0
Голосов нет
3
0
Голосов нет
2
0
Голосов нет
1
0
Голосов нет
 
Всего голосов: 0

Торрент Сидеров Личеров Размер
torrent_17142.torrent
11 3 42.06 МБ
Аватара пользователя
Нюша
Сообщения: 6370
Зарегистрирован: 15 янв 2012, 16:08

Уход за кожей вокруг глаз от SHISEIDO [2009 г., Уход за кожей, DVDRip, RUS]

Сообщение Нюша » 10 май 2012, 23:18

Уход за кожей вокруг глаз от SHISEIDO
Год выпуска: 2009
Страна: Россия
Тематика: Уход за кожей
Продолжительность: 2 мин 45 сек
Язык: Русский
Перевод: Не требуется
Описание: Константин Бойко, ведущий косметолог компании SHISEIDO, рассказывает вам, как правильно ухаживать за чувствительной кожей вокруг глаз.
Качество: DVDRip
Формат: AVI
Видео кодек: Microsoft MPEG-4 v2
Аудио кодек: MPEG Layer 3
Видео: 720x576 (1.25:1), 25 fps, Microsoft MPEG-4 Video Codec V2 ~2068 kbps avg, 0.20 bit/pixel
Аудио: 22.050 kHz, MPEG Layer 3, 2 ch, ~64.00 kbps avg
Отчет MediaInfo
General
Complete name : G:\Уход за кожей глаз от Shiseido.avi
Format : AVI
Format/Info : Audio Video Interleave
File size : 42.1 MiB
Duration : 5mn 29s
Overall bit rate : 1 072 Kbps
Writing application : Lavf52.0.0
Video
ID : 0
Format : MPEG-4 Visual
Codec ID : MP42
Codec ID/Info : Microsoft MPEG-4 v2 (pre-standard)
Codec ID/Hint : Microsoft
Duration : 2mn 44s
Bit rate : 2 069 Kbps
Width : 720 pixels
Height : 576 pixels
Display aspect ratio : 5:4
Frame rate : 25.000 fps
Standard : PAL
Bits/(Pixel*Frame) : 0.200
Stream size : 40.6 MiB (96%)
Audio
ID : 1
Format : MPEG Audio
Format version : Version 2
Format profile : Layer 3
Mode : Joint stereo
Mode extension : MS Stereo
Codec ID : 55
Codec ID/Hint : MP3
Duration : 5mn 29s
Bit rate mode : Constant
Bit rate : 64.0 Kbps
Channel(s) : 2 channels
Sampling rate : 22.05 KHz
Stream size : 1.26 MiB (3%)
Alignment : Aligned on interleaves
Interleave, duration : 26 ms (0.65 video frame)
Writing library : LAME3.96.1
Скриншоты

Скринлисты
У вас нет необходимых прав для просмотра вложений в этом сообщении.