Сообщение

[Udemy.com] Setup Webserver (Nginx) & a Caching Server(Varnish) [2015, ENG]

Сообщение Солнышко » 26 фев 2017, 13:33

Setup Webserver (Nginx) & a Caching Server(Varnish)

Год выпуска: 2015
Производитель: Udemy
Сайт производителя: udemy.com/setupwebservernginxvarnish
Автор: Jason Humphrey
Продолжительность: 0:33
Тип раздаваемого материала: Видеоклипы
Язык: Английский
Описание: What is the course about?This course is all about how to build a web service that is extremely fast. It is based off two primary technologies: Nginx & Varnish Cache. I will show you what the commands are to set one up on a Google could instance.What kind of materials are included?The commands taken will be provide as well as the github to build your on cdn interface. There will also be quizzes and more content in the futureHow long will the course take to complete?Currently the course should take you about 1 hour to watch and do everything. About another hour to set up your own set up on web service on google cloud.How is the course structured?This Course is structure to help taking you from not know how to set up your on web services to being able to set up your own. I will take it step by step to make sure you can repeat the process.Why take this course?Take this course if you want to learn how to set up your own server for you website , internally in your corporation or a new skill. This tech stack can make your response to user's extremely fast.

Конфигурация веб-сервера Nginx.
Section 1: Beginner:Install & Run
1 Introduction
2 Install Nginx & run
3 Install Varnish & run
4 Create Simple CDN Interface
5 Beginner Review
6 Beginner Completion Quiz
Файлы примеров: не предусмотрены
Формат видео: MP4
Видео: AVC
Аудио: AAC, stereo
General
Complete name : 1_-_Beginner_-Install_and_Run\1_-_Introduction.mp4
Format : MPEG-4
Format profile : Base Media
Codec ID : isom (isom/avc1/mp42)
File size : 6.76 MiB
Duration : 3mn 29s
Overall bit rate mode : Variable
Overall bit rate : 271 Kbps
Encoded date : UTC 2015-06-03 22:16:23
Tagged date : UTC 2015-06-03 22:16:23

Video
ID : 1
Format : AVC
Format/Info : Advanced Video Codec
Format profile : Baseline@L3.1
Format settings, CABAC : No
Format settings, ReFrames : 3 frames
Format settings, GOP : M=1, N=50
Codec ID : avc1
Codec ID/Info : Advanced Video Coding
Duration : 3mn 29s
Bit rate : 207 Kbps
Maximum bit rate : 362 Kbps
Width : 958 pixels
Height : 720 pixels
Display aspect ratio : 4:3
Frame rate mode : Constant
Frame rate : 30.000 fps
Color space : YUV
Chroma subsampling : 4:2:0
Bit depth : 8 bits
Scan type : Progressive
Bits/(Pixel*Frame) : 0.010
Stream size : 5.16 MiB (76%)
Writing library : Zencoder Video Encoding System
Encoded date : UTC 2015-06-03 22:15:41
Tagged date : UTC 2015-06-03 22:16:23

Audio
ID : 2
Format : AAC
Format/Info : Advanced Audio Codec
Format profile : LC
Codec ID : 40
Duration : 3mn 29s
Bit rate mode : Variable
Bit rate : 61.7 Kbps
Maximum bit rate : 67.4 Kbps
Channel(s) : 2 channels
Channel positions : Front: L R
Sampling rate : 44.1 KHz
Frame rate : 43.066 fps (1024 spf)
Compression mode : Lossy
Stream size : 1.54 MiB (23%)
Encoded date : UTC 2015-06-03 22:15:41
Tagged date : UTC 2015-06-03 22:16:23

General
Complete name : 1_-_Beginner_-Install_and_Run\2_-_Install_Nginx_and_run.mp4
Format : MPEG-4
Format profile : Base Media
Codec ID : isom (isom/avc1/mp42)
File size : 30.7 MiB
Duration : 8mn 59s
Overall bit rate mode : Variable
Overall bit rate : 477 Kbps
Encoded date : UTC 2015-06-03 22:25:45
Tagged date : UTC 2015-06-03 22:25:45

Video
ID : 1
Format : AVC
Format/Info : Advanced Video Codec
Format profile : Baseline@L3.2
Format settings, CABAC : No
Format settings, ReFrames : 3 frames
Format settings, GOP : M=1, N=50
Codec ID : avc1
Codec ID/Info : Advanced Video Coding
Duration : 8mn 59s
Bit rate : 412 Kbps
Maximum bit rate : 6 091 Kbps
Width : 1 410 pixels
Height : 720 pixels
Display aspect ratio : 1.958
Frame rate mode : Constant
Frame rate : 30.000 fps
Color space : YUV
Chroma subsampling : 4:2:0
Bit depth : 8 bits
Scan type : Progressive
Bits/(Pixel*Frame) : 0.014
Stream size : 26.5 MiB (86%)
Writing library : Zencoder Video Encoding System
Encoded date : UTC 2015-06-03 22:23:08
Tagged date : UTC 2015-06-03 22:25:46

Audio
ID : 2
Format : AAC
Format/Info : Advanced Audio Codec
Format profile : LC
Codec ID : 40
Duration : 8mn 59s
Bit rate mode : Variable
Bit rate : 62.2 Kbps
Maximum bit rate : 68.8 Kbps
Channel(s) : 2 channels
Channel positions : Front: L R
Sampling rate : 44.1 KHz
Frame rate : 43.066 fps (1024 spf)
Compression mode : Lossy
Stream size : 4.00 MiB (13%)
Encoded date : UTC 2015-06-03 22:23:08
Tagged date : UTC 2015-06-03 22:25:46

General
Complete name : 1_-_Beginner_-Install_and_Run\3_-_Install_Varnish_and_run.mp4
Format : MPEG-4
Format profile : Base Media
Codec ID : isom (isom/avc1/mp42)
File size : 24.4 MiB
Duration : 9mn 42s
Overall bit rate mode : Variable
Overall bit rate : 352 Kbps
Encoded date : UTC 2015-06-03 22:26:17
Tagged date : UTC 2015-06-03 22:26:17

Video
ID : 1
Format : AVC
Format/Info : Advanced Video Codec
Format profile : Baseline@L3.2
Format settings, CABAC : No
Format settings, ReFrames : 3 frames
Format settings, GOP : M=1, N=50
Codec ID : avc1
Codec ID/Info : Advanced Video Coding
Duration : 9mn 42s
Bit rate : 288 Kbps
Maximum bit rate : 2 737 Kbps
Width : 1 410 pixels
Height : 720 pixels
Display aspect ratio : 1.958
Frame rate mode : Constant
Frame rate : 30.000 fps
Color space : YUV
Chroma subsampling : 4:2:0
Bit depth : 8 bits
Scan type : Progressive
Bits/(Pixel*Frame) : 0.009
Stream size : 20.0 MiB (82%)
Writing library : Zencoder Video Encoding System
Encoded date : UTC 2015-06-03 22:23:11
Tagged date : UTC 2015-06-03 22:26:17

Audio
ID : 2
Format : AAC
Format/Info : Advanced Audio Codec
Format profile : LC
Codec ID : 40
Duration : 9mn 42s
Bit rate mode : Variable
Bit rate : 60.6 Kbps
Maximum bit rate : 70.7 Kbps
Channel(s) : 2 channels
Channel positions : Front: L R
Sampling rate : 44.1 KHz
Frame rate : 43.066 fps (1024 spf)
Compression mode : Lossy
Stream size : 4.21 MiB (17%)
Encoded date : UTC 2015-06-03 22:23:11
Tagged date : UTC 2015-06-03 22:26:17

General
Complete name : 1_-_Beginner_-Install_and_Run\4_-_Create_Simple_CDN_Interface.mp4
Format : MPEG-4
Format profile : Base Media
Codec ID : isom (isom/avc1/mp42)
File size : 27.4 MiB
Duration : 8mn 5s
Overall bit rate mode : Variable
Overall bit rate : 473 Kbps
Encoded date : UTC 2015-06-03 22:25:08
Tagged date : UTC 2015-06-03 22:25:08

Video
ID : 1
Format : AVC
Format/Info : Advanced Video Codec
Format profile : Baseline@L3.2
Format settings, CABAC : No
Format settings, ReFrames : 3 frames
Format settings, GOP : M=1, N=50
Codec ID : avc1
Codec ID/Info : Advanced Video Coding
Duration : 8mn 5s
Bit rate : 410 Kbps
Maximum bit rate : 3 404 Kbps
Width : 1 424 pixels
Height : 720 pixels
Display aspect ratio : 1.978
Frame rate mode : Constant
Frame rate : 30.000 fps
Color space : YUV
Chroma subsampling : 4:2:0
Bit depth : 8 bits
Scan type : Progressive
Bits/(Pixel*Frame) : 0.013
Stream size : 23.7 MiB (87%)
Writing library : Zencoder Video Encoding System
Encoded date : UTC 2015-06-03 22:22:44
Tagged date : UTC 2015-06-03 22:25:08

Audio
ID : 2
Format : AAC
Format/Info : Advanced Audio Codec
Format profile : LC
Codec ID : 40
Duration : 8mn 5s
Bit rate mode : Variable
Bit rate : 60.4 Kbps
Maximum bit rate : 70.0 Kbps
Channel(s) : 2 channels
Channel positions : Front: L R
Sampling rate : 44.1 KHz
Frame rate : 43.066 fps (1024 spf)
Compression mode : Lossy
Stream size : 3.49 MiB (13%)
Encoded date : UTC 2015-06-03 22:22:44
Tagged date : UTC 2015-06-03 22:25:08

General
Complete name : 1_-_Beginner_-Install_and_Run\5_-_Beginner_Review.mp4
Format : MPEG-4
Format profile : Base Media
Codec ID : isom (isom/avc1/mp42)
File size : 6.75 MiB
Duration : 3mn 32s
Overall bit rate mode : Variable
Overall bit rate : 267 Kbps
Encoded date : UTC 2015-06-03 23:43:38
Tagged date : UTC 2015-06-03 23:43:38

Video
ID : 1
Format : AVC
Format/Info : Advanced Video Codec
Format profile : Baseline@L3.1
Format settings, CABAC : No
Format settings, ReFrames : 3 frames
Format settings, GOP : M=1, N=50
Codec ID : avc1
Codec ID/Info : Advanced Video Coding
Duration : 3mn 32s
Bit rate : 204 Kbps
Maximum bit rate : 493 Kbps
Width : 1 152 pixels
Height : 720 pixels
Display aspect ratio : 16:10
Frame rate mode : Constant
Frame rate : 30.000 fps
Color space : YUV
Chroma subsampling : 4:2:0
Bit depth : 8 bits
Scan type : Progressive
Bits/(Pixel*Frame) : 0.008
Stream size : 5.16 MiB (77%)
Writing library : Zencoder Video Encoding System
Encoded date : UTC 2015-06-03 23:43:25
Tagged date : UTC 2015-06-03 23:43:39

Audio
ID : 2
Format : AAC
Format/Info : Advanced Audio Codec
Format profile : LC
Codec ID : 40
Duration : 3mn 32s
Bit rate mode : Variable
Bit rate : 60.0 Kbps
Maximum bit rate : 67.3 Kbps
Channel(s) : 2 channels
Channel positions : Front: L R
Sampling rate : 44.1 KHz
Frame rate : 43.066 fps (1024 spf)
Compression mode : Lossy
Stream size : 1.52 MiB (22%)
Encoded date : UTC 2015-06-03 23:43:25
Tagged date : UTC 2015-06-03 23:43:39

Постеры

Соцсети

 

Статистика

Автор: Солнышко
Добавлен: 26 фев 2017, 13:33
Размер: 96.04 МБ
Размер: 100 701 218 байт
Сидеров: 0
Личеров: 0
Скачали: 0
Здоровье: 0%
Скорость скачивания: 0 байт/сек
Скорость раздачи: 0 байт/сек
Последний сидер: Нет
Последний личер: Нет
Приватный: Нет (DHT включён)
Сеть и безопасность Скачать торрент
Скачать торрент
[ Размер 8.42 КБ / Просмотров 0 ]

Поделиться



  • Похожие торренты
    Ответы
    Просмотры
    Последнее сообщение

Вернуться в Сеть и безопасность