Сообщение

[Pluralsight] Cisco CCIE Routing and Switching: Implement BGP [2014, ENG]

Сообщение Солнышко » 26 фев 2017, 13:34

Cisco CCIE Routing and Switching: Implement BGP

Год выпуска: 2014
Производитель: Pluralsight
Сайт производителя: http://pluralsight.com/
Автор: Joe Astorino
Продолжительность: 5h 4m
Тип раздаваемого материала: Видеоклипы
Язык: Английский
Описание: The primary goals of this course are to prepare candidates for the BGP section of the CCIE Routing and Switching written exam, as well as to provide CCIE candidates with a strong level of foundational knowledge in BGP routing needed to begin studying for the CCIE routing and switching lab exam. At the end of the course, a student should feel confident in his or her knowledge of the BGP based topics covered by the CCIE routing and switching written exam, and will have the fundamental knowledge necessary to begin their longer journey to passing the CCIE lab exam. Please note the course is not designed to fully prepare a candidate to sit the CCIE lab exam, but rather to prepare a candidate to pass the written exam and as a stepping stone into lab exam preparation. More information about the CCIE program can be found at http://www.cisco.com/go/ccie

Основными задачами этого курса являются подготовка кандидатов на разделе BGP в CCIE маршрутизации и коммутации письменного экзамена, а также чтобы обеспечить CCIE кандидатов с сильным уровнем фундаментальных знаний, в BGP маршрутизации необходимо начать изучение для маршрутизации и коммутации CCIE лаборатория экзамен. В конце курса, студент должен чувствовать себя уверенно в его или ее знаний на основе BGP тем, затронутых в маршрутизации CCIE и коммутационных письменный экзамен, и будет иметь фундаментальные знания, необходимые, чтобы начать их длительное путешествие к прохождению CCIE лабораторный экзамен . Обратите внимание, что курс не предназначен для полностью подготовить кандидата, чтобы сидеть на CCIE лабораторный экзамен, а скорее подготовить кандидата пройти письменный экзамен и как трамплин в подготовке лабораторного экзамена. Более подробную информацию о программе CCIE можно найти на http://www.cisco.com/go/ccie
Код:
Код: Выделить всё
│   ccie-routing-switching-implement-bgp.zip

├───01. Introduction to the Course
│       01. Introduction to the Course.mp4

├───02. BGP Foundations
│       01. Introduction.mp4
│       02. BGP Overview.mp4
│       03. eBGP vs iBGP.mp4
│       04. Configuring Basic BGP Peerings.mp4
│       05. BGP States and Message Types.mp4
│       06. BGP Authentication.mp4
│       07. Lab Overview.mp4
│       08. Configuring Lab AS 65123 Peerings.mp4
│       09. Configuring Lab AS 65004 Peerings.mp4
│       10. BGP Peering Debugging.mp4

├───03. Constructing the BGP Table
│       01. Introduction.mp4
│       02. BGP Table Summary.mp4
│       03. BGP Network Command.mp4
│       04. Redistribution.mp4
│       05. Auto Summarization.mp4
│       06. BGP Path Attributes.mp4
│       07. BGP ORIGIN PA.mp4
│       08. BGP AS_PATH PA.mp4
│       09. BGP LOCAL_PREF PA.mp4
│       10. BGP MED PA.mp4
│       11. BGP ATOMIC_AGGREGATE PA.mp4
│       12. Configuring AS_SET.mp4
│       13. BGP Default Routing.mp4

├───04. BGP Best Path Selection
│       01. Introduction.mp4
│       02. BGP Best Path Selection Overview.mp4
│       03. Step 1  Highest Weight.mp4
│       04. Step 2  Highest LOCAL_PREF.mp4
│       05. Step 3  Prefer Locally Originated Routes.mp4
│       06. Step 4  Shortest AS_PATH.mp4
│       07. Step 5  Lowest ORIGIN.mp4
│       08. Step 6  Lowest MED.mp4
│       09. Step 7  Prefer eBGP   iBGP.mp4
│       10. Steps 8 - 12.mp4
│       11. BGP Multipath.mp4
│       12. Advertising Routes.mp4

├───05. BGP Route Manipulations
│       01. Introduction.mp4
│       02. BGP Lab Tour.mp4
│       03. Manipulating Outbound Routing  WEIGHT.mp4
│       04. Manipulating Outbound Routing  LOCAL_PREF.mp4
│       05. Manipulating Outbound Routing  LOCAL_PREF With Communities.mp4
│       06. Manipulating Inbound Routing  AS_PATH Prepending.mp4
│       07. Manipulating Inbound Routing  MED.mp4

├───06. BGP Route Filtering
│       01. Introduction.mp4
│       02. BGP Route Filtering Summary.mp4
│       03. Distribute-Lists.mp4
│       04. Prefix-Lists.mp4
│       05. AS_PATH access-lists.mp4
│       06. Route-Maps.mp4
│       07. Aggregation Based Filtering.mp4
│       08. BGP Communities.mp4

├───07. Route Reflectors and Confederations
│       01. Introduction.mp4
│       02. iBGP Scaling Solutions.mp4
│       03. Route Reflectors.mp4
│       04. Configuring Route Reflectors.mp4
│       05. BGP Confederations.mp4
│       06. Configuring BGP Confederations.mp4

└───08. Multi-Protocol BGP
        01. Introduction.mp4
        02. Multiprotocol BGP.mp4
        03. Configuring MBGP.mp4
        04. Hands On MBGP Configuration.mp4

Файлы примеров: присутствуют
Формат видео: MP4
General
Complete name : D:\02. BGP Lab Tour.mp4
Format : MPEG-4
Format profile : Base Media / Version 2
Codec ID : mp42
File size : 41.6 MiB
Duration : 9mn 54s
Overall bit rate mode : Variable
Overall bit rate : 587 Kbps
Encoded date : UTC 2014-01-15 04:33:04
Tagged date : UTC 2014-01-15 04:33:45
Writing application : HandBrake 0.9.8 2012071700

Video
ID : 1
Format : AVC
Format/Info : Advanced Video Codec
Format profile : Baseline@L3.1
Format settings, CABAC : No
Format settings, ReFrames : 2 frames
Format settings, GOP : M=1, N=50
Codec ID : avc1
Codec ID/Info : Advanced Video Coding
Duration : 9mn 54s
Duration_FirstFrame : 67ms
Bit rate : 465 Kbps
Width : 1 024 pixels
Height : 768 pixels
Display aspect ratio : 4:3
Frame rate mode : Constant
Frame rate : 15.000 fps
Color space : YUV
Chroma subsampling : 4:2:0
Bit depth : 8 bits
Scan type : Progressive
Bits/(Pixel*Frame) : 0.039
Stream size : 33.0 MiB (79%)
Writing library : x264 core 120
Encoding settings : cabac=0 / ref=2 / deblock=1:0:0 / analyse=0x1:0x111 / me=umh / subme=6 / psy=1 / psy_rd=1.00:0.00 / mixed_ref=1 / me_range=16 / chroma_me=1 / trellis=0 / 8x8dct=0 / cqm=0 / deadzone=21,11 / fast_pskip=1 / chroma_qp_offset=-2 / threads=12 / sliced_threads=0 / nr=0 / decimate=1 / interlaced=0 / bluray_compat=0 / constrained_intra=0 / bframes=0 / weightp=0 / keyint=50 / keyint_min=15 / scenecut=40 / intra_refresh=0 / rc_lookahead=40 / rc=crf / mbtree=1 / crf=20.0 / qcomp=0.60 / qpmin=3 / qpmax=69 / qpstep=4 / ip_ratio=1.40 / aq=1:1.00
Encoded date : UTC 2014-01-15 04:33:04
Tagged date : UTC 2014-01-15 04:33:45
Color primaries : BT.709
Transfer characteristics : BT.709
Matrix coefficients : BT.709

Audio
ID : 2
Format : AAC
Format/Info : Advanced Audio Codec
Format profile : LC
Codec ID : 40
Duration : 9mn 54s
Bit rate mode : Variable
Bit rate : 120 Kbps
Maximum bit rate : 149 Kbps
Channel(s) : 2 channels
Channel positions : Front: L R
Sampling rate : 44.1 KHz
Compression mode : Lossy
Stream size : 8.51 MiB (20%)
Language : English
Encoded date : UTC 2014-01-15 04:33:04
Tagged date : UTC 2014-01-15 04:33:45

Постеры

Соцсети

 

Статистика

Автор: Солнышко
Добавлен: 26 фев 2017, 13:34
Размер: 855.33 МБ
Размер: 896 882 819 байт
Сидеров: 0
Личеров: 0
Скачали: 0
Здоровье: 0%
Скорость скачивания: 0 байт/сек
Скорость раздачи: 0 байт/сек
Последний сидер: Нет
Последний личер: Нет
Приватный: Нет (DHT включён)
Сеть и безопасность Скачать торрент
Скачать торрент
[ Размер 23.1 КБ / Просмотров 0 ]

Поделиться



  • Похожие торренты
    Ответы
    Просмотры
    Последнее сообщение

Вернуться в Сеть и безопасность