Сообщение

[Pluralsight] VMware vCloud Hybrid Service (vCHS) [2014, ENG]

Сообщение Солнышко » 26 фев 2017, 13:35

VMware vCloud Hybrid Service (vCHS)

Год выпуска: 2014
Производитель: Pluralsight
Сайт производителя: http://pluralsight.com/
Автор: David Davis
Продолжительность: 2h 45m
Тип раздаваемого материала: Видеоклипы
Язык: Английский
Описание: VMware’s new public infrastructure as a service (IaaS) cloud offering was designed to provide enterprises with the business agility and efficiency that they need to stay competitive. By providing VMware’s enterprise customers with a powerful, fast, robust, secure, and reliable infrastructure on demand solution that is fully compatible with their existing vSphere infrastructure, VMware has created a compelling hybrid cloud offering. In this course, you’ll learn specifically how vCHS works, how you would administer it, how to create new virtual machines, how to manage virtual networks, administer users, connect your re infrastructure, and much more!

Новая общественная инфраструктура VMware, как услуга (IaaS) облачных предложение было разработано, чтобы обеспечить предприятия с бизнес гибкости и эффективности, что они должны оставаться конкурентоспособными. Предоставляя клиентам компании VMware предприятия с мощным, быстрый, надежный, безопасный и надежный инфраструктуры на решения спроса, который полностью совместим с существующей VSPHERE инфраструктуры, VMware создала убедительный гибридных облачных предложение. В этом курсе вы узнаете, в частности, как vCHS работает, как бы вы его администрирования, как создавать новые виртуальные машины, как управлять виртуальными сетями, управления пользователями, подключите повторной инфраструктуры, и многое другое!
Код:
Код: Выделить всё
│   vmware-vcloud-hybrid-service.zip

├───01. Introduction to VMware vCloud Hybrid Service
│       01. What is vCloud Hybrid Service .mp4
│       02. Extending vSphere to the Cloud.mp4
│       03. Review of vCHS Components.mp4
│       04. vCloud Hybrid Service Use Cases.mp4
│       05. Special Thanks.mp4
│       06. What You'll Learn in this Course.mp4

├───02. Understanding vCloud Hybrid Service
│       01. Top 5 Benefits of vCloud Hybrid Service.mp4
│       02. Business Drivers for vCHS.mp4
│       03. Types of vCHS  Dedicated vs Virtual Private Cloud (VPC).mp4
│       04. Datacenter Locations.mp4
│       05. Data Protection Service.mp4
│       06. Direct Connect.mp4
│       07. Operating Systems and Application Catalogs.mp4
│       08. Service Level Agreement (SLA).mp4
│       09. vCloud Hybrid Service Marketplace.mp4
│       10. Requirements to Use vCHS.mp4
│       11. Summary.mp4

├───03. vCloud Hybrid Service Planning
│       01. Selecting the Type of Cloud.mp4
│       02. Cloud Sizing Considerations.mp4
│       03. Cloud Networks.mp4
│       04. Cloud Infrastructure Services.mp4
│       05. Migration of VMs, Apps, and Data to the Cloud.mp4
│       06. Example of vCHS Cloud Build and Deployment Plan.mp4
│       07. Summary.mp4

├───04. Managing Virtual Data Centers in vCHS
│       01. What is a VDC .mp4
│       02. Creating Virtual Data Centers (VDC).mp4
│       03. Demo  Logging into vCHS and Managing Virtual Datacenters.mp4
│       04. Summary.mp4

├───05. Understanding vCHS Gateways and Networks
│       01. Understanding vCHS Gateways.mp4
│       02. Demo  Creating and Administering vCHS Gateways and Networks.mp4
│       03. Summary.mp4

├───06. Creating Virtual Machines in vCloud Hybrid Service
│       01. Understanding Applications Catalogs.mp4
│       02. Demo  Deploying Your First Virtual Machine in vCHS.mp4
│       03. Creating Your Own Custom vCHS Catalog.mp4
│       04. Uploading Media Files to the Catalog.mp4
│       05. Accessing the VM Console and Controlling VM Power.mp4
│       06. Snapshotting and Reverting Virtual Machines.mp4

├───07. Protecting your Virtual Machines in vCHS
│       01. vCHS Data Protection.mp4
│       02. Demo  vCHS Data Protection.mp4
│       03. Third-party Data Protection.mp4
│       04. Accessing VMs through the vCHS API.mp4
│       05. Summary.mp4

├───08. Administering vCHS Users
│       01. Types of vCHS Users.mp4
│       02. Adding Editing Removing vCHS Users.mp4
│       03. Viewing Activity Logs.mp4
│       04. Summary.mp4

├───09. Using vCloud Connector
│       01. What vCloud Connector Offers You.mp4
│       02. Downloading and Installing vCloud Connector.mp4
│       03. vCloud Connector Components.mp4
│       04. Configuring vCloud Connector.mp4
│       05. vCloud Connector Registration in the vSphere Client.mp4
│       06. Connecting vCloud Connector to vCloud Hybrid Service.mp4
│       07. Summary.mp4

└───10. Creating a Hybrid Cloud with vCHS
        01. Understanding Requirements.mp4
        02. Considering Site to Site Options for vCHS.mp4
        03. Creating a Site to Site VPN Between vSphere and vCHS.mp4
        04. Summary.mp4

Файлы примеров: присутствуют
Формат видео: MP4
General
Complete name : D:\02. Demo vCHS Data Protection.mp4
Format : MPEG-4
Format profile : Base Media / Version 2
Codec ID : mp42
File size : 5.73 MiB
Duration : 2mn 31s
Overall bit rate mode : Variable
Overall bit rate : 318 Kbps
Encoded date : UTC 2014-01-31 21:38:42
Tagged date : UTC 2014-01-31 21:38:56
Writing application : HandBrake 0.9.8 2012071700

Video
ID : 1
Format : AVC
Format/Info : Advanced Video Codec
Format profile : Baseline@L3.1
Format settings, CABAC : No
Format settings, ReFrames : 2 frames
Format settings, GOP : M=1, N=50
Codec ID : avc1
Codec ID/Info : Advanced Video Coding
Duration : 2mn 31s
Duration_FirstFrame : 67ms
Bit rate : 205 Kbps
Width : 1 024 pixels
Height : 768 pixels
Display aspect ratio : 4:3
Frame rate mode : Constant
Frame rate : 15.000 fps
Color space : YUV
Chroma subsampling : 4:2:0
Bit depth : 8 bits
Scan type : Progressive
Bits/(Pixel*Frame) : 0.017
Stream size : 3.70 MiB (64%)
Writing library : x264 core 120
Encoding settings : cabac=0 / ref=2 / deblock=1:0:0 / analyse=0x1:0x111 / me=umh / subme=6 / psy=1 / psy_rd=1.00:0.00 / mixed_ref=1 / me_range=16 / chroma_me=1 / trellis=0 / 8x8dct=0 / cqm=0 / deadzone=21,11 / fast_pskip=1 / chroma_qp_offset=-2 / threads=12 / sliced_threads=0 / nr=0 / decimate=1 / interlaced=0 / bluray_compat=0 / constrained_intra=0 / bframes=0 / weightp=0 / keyint=50 / keyint_min=15 / scenecut=40 / intra_refresh=0 / rc_lookahead=40 / rc=crf / mbtree=1 / crf=20.0 / qcomp=0.60 / qpmin=3 / qpmax=69 / qpstep=4 / ip_ratio=1.40 / aq=1:1.00
Encoded date : UTC 2014-01-31 21:38:42
Tagged date : UTC 2014-01-31 21:38:56
Color primaries : BT.709
Transfer characteristics : BT.709
Matrix coefficients : BT.709

Audio
ID : 2
Format : AAC
Format/Info : Advanced Audio Codec
Format profile : LC
Codec ID : 40
Duration : 2mn 31s
Bit rate mode : Variable
Bit rate : 111 Kbps
Maximum bit rate : 136 Kbps
Channel count : 2 channels
Channel positions : Front: L R
Sampling rate : 44.1 KHz
Compression mode : Lossy
Stream size : 2.00 MiB (35%)
Language : English
Encoded date : UTC 2014-01-31 21:38:42
Tagged date : UTC 2014-01-31 21:38:56

Постеры

Соцсети

 

Статистика

Автор: Солнышко
Добавлен: 26 фев 2017, 13:35
Размер: 324.21 МБ
Размер: 339 959 694 байт
Сидеров: 0
Личеров: 0
Скачали: 0
Здоровье: 0%
Скорость скачивания: 0 байт/сек
Скорость раздачи: 0 байт/сек
Последний сидер: 11 месяцев 19 дней 1 час 10 минут 4 секунды назад
Последний личер: Нет
Приватный: Нет (DHT включён)
Сеть и безопасность Скачать торрент
Скачать торрент
[ Размер 19.79 КБ / Просмотров 1 ]

Поделиться



  • Похожие торренты
    Ответы
    Просмотры
    Последнее сообщение

Вернуться в Сеть и безопасность