Сообщение

[Pluralsight] Cisco CCNA Data Center: Nexus, Advanced Switching & SAN [2014, ENG]

Сообщение Солнышко » 26 фев 2017, 14:28

Cisco CCNA Data Center: Nexus, Advanced Switching & SAN

Год выпуска: 2014
Производитель: Pluralsight
Сайт производителя: http://pluralsight.com/
Автор: Chris Wahl
Продолжительность: 4h 26m
Тип раздаваемого материала: Видеоклипы
Язык: Английский
Описание: The CCNA Data Center covers a wide range of technologies found in the data center. In this course, we dive deep into LAN architecture with the Cisco Nexus line of switches, their specific use cases, and how to perform initial setup and configuration. We'll also look at advanced switching techniques, such as Virtual Port Channels, FabricPath, and Virtual Device Contexts (VDCs). Finally, we'll switch gears and focus on Storage Area Network (SAN) design and implementation with the Cisco MDS line of switches, including port types, Virtual SAN (VSAN), zoning, masking, and Fabric Login (FLOGI).

Центр обработки данных CCNA охватывает широкий спектр технологий, найденных в центре обработки данных. В этом курсе мы погрузиться в LAN архитектуры с Cisco Nexus линии переключателей, их конкретных случаев использования, и, как выполнить первоначальную установку и настройку. Мы также рассмотрим передовых методов коммутации, такими как виртуальный порт каналов, FabricPath и контекстов виртуального устройства (СКР). Наконец, мы переключиться и сосредоточиться на сети хранения данных (SAN) разработки и внедрения с Cisco MDS линии выключателей, в том числе типов портов, Virtual SAN (VSAN), зонирования, маскировки и М_Структурой (FLOGI).
Код:
Код: Выделить всё
│   cisco-ccna-data-center-nexus-switching-san.zip

├───01. Network Architecture
│       01. Introduction.mp4
│       02. Modular LAN Design.mp4
│       03. Core Layer.mp4
│       04. Aggregation Layer.mp4
│       05. Access Layer.mp4
│       06. Collapsed Core Model.mp4
│       07. Summary.mp4

├───02. FabricPath
│       01. Introduction.mp4
│       02. Comparing FabricPath to Classical Ethernet.mp4
│       03. Implementing FabricPath.mp4
│       04. Summary.mp4

├───03. Virtual Port Channels (vPC)
│       01. Introduction.mp4
│       02. vPC Technology Overview.mp4
│       03. vPC Components.mp4
│       04. vPC Configuration.mp4
│       05. Summary.mp4

├───04. Nexus Product Family
│       01. Introduction.mp4
│       02. Nexus Switch Overview.mp4
│       03. Nexus 7000 Series (7K).mp4
│       04. Nexus 5000 Series (5K).mp4
│       05. Nexus 2000 Series (2K).mp4
│       06. Licensing.mp4
│       07. Summary.mp4

├───05. Modular Switch Architecture
│       01. Introduction.mp4
│       02. The Control Plane.mp4
│       03. The Data Plane.mp4
│       04. Virtual Device Context.mp4
│       05. Nexus Initial Setup.mp4
│       06. Summary.mp4

├───06. Advanced Switching Concepts
│       01. Introduction.mp4
│       02. Virtual Routing and Forwarding (VRF).mp4
│       03. VRF Configuration.mp4
│       04. Overlay Transport Virtualization (OTV).mp4
│       05. Summary.mp4

├───07. Storage Area Networks
│       01. Introduction.mp4
│       02. SAN Protocols.mp4
│       03. Initiator.mp4
│       04. Target.mp4
│       05. LUNs and RAID.mp4
│       06. Summary.mp4

├───08. SAN Design with Cisco MDS
│       01. Introduction.mp4
│       02. SAN Design.mp4
│       03. Port Types.mp4
│       04. MDS Edge Switches.mp4
│       05. MDS Core Switches.mp4
│       06. Virtual SAN (vSAN).mp4
│       07. MDS Initial Setup.mp4
│       08. Summary.mp4

└───09. SAN Connectivity
        01. Introduction.mp4
        02. Creating Aliases.mp4
        03. Zones and Masking.mp4
        04. Zone Sets.mp4
        05. FLOGI.mp4
        06. Summary.mp4

Файлы примеров: присутствуют
Формат видео: MP4
General
Complete name : D:\04. Overlay Transport Virtualization (OTV).mp4
Format : MPEG-4
Format profile : Base Media / Version 2
Codec ID : mp42
File size : 22.1 MiB
Duration : 9mn 25s
Overall bit rate mode : Variable
Overall bit rate : 328 Kbps
Encoded date : UTC 2014-01-27 06:58:27
Tagged date : UTC 2014-01-27 06:59:02
Writing application : HandBrake 0.9.8 2012071700

Video
ID : 1
Format : AVC
Format/Info : Advanced Video Codec
Format profile : Baseline@L3.1
Format settings, CABAC : No
Format settings, ReFrames : 2 frames
Format settings, GOP : M=1, N=50
Codec ID : avc1
Codec ID/Info : Advanced Video Coding
Duration : 9mn 25s
Duration_FirstFrame : 67ms
Bit rate : 205 Kbps
Width : 1 024 pixels
Height : 768 pixels
Display aspect ratio : 4:3
Frame rate mode : Constant
Frame rate : 15.000 fps
Color space : YUV
Chroma subsampling : 4:2:0
Bit depth : 8 bits
Scan type : Progressive
Bits/(Pixel*Frame) : 0.017
Stream size : 13.8 MiB (62%)
Writing library : x264 core 120
Encoding settings : cabac=0 / ref=2 / deblock=1:0:0 / analyse=0x1:0x111 / me=umh / subme=6 / psy=1 / psy_rd=1.00:0.00 / mixed_ref=1 / me_range=16 / chroma_me=1 / trellis=0 / 8x8dct=0 / cqm=0 / deadzone=21,11 / fast_pskip=1 / chroma_qp_offset=-2 / threads=12 / sliced_threads=0 / nr=0 / decimate=1 / interlaced=0 / bluray_compat=0 / constrained_intra=0 / bframes=0 / weightp=0 / keyint=50 / keyint_min=15 / scenecut=40 / intra_refresh=0 / rc_lookahead=40 / rc=crf / mbtree=1 / crf=20.0 / qcomp=0.60 / qpmin=3 / qpmax=69 / qpstep=4 / ip_ratio=1.40 / aq=1:1.00
Encoded date : UTC 2014-01-27 06:58:27
Tagged date : UTC 2014-01-27 06:59:02
Color primaries : BT.709
Transfer characteristics : BT.709
Matrix coefficients : BT.709

Audio
ID : 2
Format : AAC
Format/Info : Advanced Audio Codec
Format profile : LC
Codec ID : 40
Duration : 9mn 25s
Bit rate mode : Variable
Bit rate : 121 Kbps
Maximum bit rate : 147 Kbps
Channel count : 2 channels
Channel positions : Front: L R
Sampling rate : 44.1 KHz
Compression mode : Lossy
Stream size : 8.17 MiB (37%)
Language : English
Encoded date : UTC 2014-01-27 06:58:27
Tagged date : UTC 2014-01-27 06:59:02

Постеры

Соцсети

 

Статистика

Автор: Солнышко
Добавлен: 26 фев 2017, 14:28
Размер: 604.64 МБ
Размер: 634 014 510 байт
Сидеров: 0
Личеров: 0
Скачали: 0
Здоровье: 0%
Скорость скачивания: 0 байт/сек
Скорость раздачи: 0 байт/сек
Последний сидер: Нет
Последний личер: Нет
Приватный: Нет (DHT включён)
Сеть и безопасность Скачать торрент
Скачать торрент
[ Размер 17.17 КБ / Просмотров 0 ]

Поделиться



  • Похожие торренты
    Ответы
    Просмотры
    Последнее сообщение

Вернуться в Сеть и безопасность