Сообщение

[InfiniteSkills] Mastering Python - Networking and Security Training [2014, ENG]

Сообщение Солнышко » 26 фев 2017, 15:13

Mastering Python - Networking and Security Training

Год выпуска: 2014
Производитель: InfiniteSkills
Сайт производителя: http://www.infiniteskills.com/
Автор: Ric Messier
Продолжительность: 04:51:21
Тип раздаваемого материала: Видеоурок
Язык: Английский
Описание: In this project-based Mastering Python - Networking and Security video tutorial series, you'll quickly have relevant skills for real-world applications.
Follow along with our expert instructor in this training course to get:
Concise, informative and broadcast-quality Mastering Python - Networking and Security training videos delivered to your desktop
The ability to learn at your own pace with our intuitive, easy-to-use interface
A quick grasp of even the most complex Mastering Python - Networking and Security subjects because they're broken into simple, easy to follow tutorial videos
Practical working files further enhance the learning process and provide a degree of retention that is unmatched by any other form of Mastering Python - Networking and Security tutorial, online or offline... so you'll know the exact steps for your own projects.
01. Introduction
Welcome
What We Will Cover
Getting And Installing Python
Integrated Development Environments
Python 2 Versus Python 3
0106 How To Access Your Working Files
02. Python Refresher
Python Console
Creating And Running Scripts
Variables
Loops
Scoping
Subroutines
Conditional Statements
Calling To System
Using Threads
Parsing Arguments
0211 Handling Exceptions
0212 Installing Additional Packages
0213 Classes
0214 Instances
03. Networking
0301 Network Byte Order
0302 Name Server Lookups
0303 Network Client
0304 Network Server
0305 Grabbing Banners
0306 Simple HTTP Request
0307 Capturing Packets
0308 Reading Headers
0309 Parsing PCAP Files
0310 Creating Raw Packets With Scapy
0311 Communicating With SSL
0312 Talking To SMTP Servers
0313 Talking To POP3 And IMAP Servers
0314 FTP
0315 Multicasting
0316 UDP
0317 Telnet Client
04. HTTP Programming
0401 Authenticating
0402 Setting The User Agent
0403 Setting Cookies
0404 Using A HEAD Request
0405 Interfacing With Web Forms
0406 Parsing Web Responses
0407 Using Web Proxies
0408 Downloading Files Via HTTP
0409 Spidering
05. Security Scripting
0501 Threaded Network Testing
0502 Creating Alternate Data Streams
0503 Fuzzing With Python
0504 Debugging With Python
0505 Steganography With Stepic
0506 Encrypting And Decrypting Data
0507 Hiding Encrypted Data With Steganography
0508 Interacting With MySQL
0509 Replaying Network Traffic
06. Forensic Scripting
0601 Accessing Windows Registry - Part 1
0602 Accessing Windows Registry - Part 2
0603 Accessing MFT - Part 1
0604 Accessing MFT - Part 2
0605 Log Parsing
0606 Analyzing The MBR
0607 Reading Alternate Data Streams
0608 Getting Process Lists
0609 Getting Access To SQLite Databases
0610 Accessing Browser Data Through SQLite
0611 Getting Access To Recycle Bin
0612 Walking A Filesystem
0613 Finding Files By Time
07. Twisted Python
0701 What Is Twisted?
0702 Echo Server
0703 Echo Client
0704 HTTP client
08. Conclusion
0801 Wrapping Up
0802 What Is Next?
Файлы примеров: присутствуют
Формат видео: MP4
Видео: AVC, 1280x720 (16:9), 15.000 fps, x264 core 129 ~64.5 Kbps avg, 0.005 bit/pixel
Аудио: 48.0 KHz, AAC LC, 1 ch, ~64.0 Kbps




























General
Complete name : 0101 Welcome.MP4
Format : MPEG-4
Format profile : Base Media / Version 2
Codec ID : mp42
File size : 1.81 MiB
Duration : 1mn 53s
Overall bit rate : 134 Kbps
Encoded date : UTC 2014-10-31 14:20:55
Tagged date : UTC 2014-10-31 18:20:56
Writing application : Sorenson Squeeze
Comment : Encoded by

Video
ID : 2
Format : AVC
Format/Info : Advanced Video Codec
Format profile : Main@L3.1
Format settings, CABAC : Yes
Format settings, ReFrames : 4 frames
Codec ID : avc1
Codec ID/Info : Advanced Video Coding
Duration : 1mn 53s
Bit rate : 64.5 Kbps
Nominal bit rate : 225 Kbps
Width : 1 280 pixels
Height : 720 pixels
Display aspect ratio : 16:9
Frame rate mode : Constant
Frame rate : 15.000 fps
Color space : YUV
Chroma subsampling : 4:2:0
Bit depth : 8 bits
Scan type : Progressive
Bits/(Pixel*Frame) : 0.005
Stream size : 894 KiB (48%)
Writing library : x264 core 129
Encoding settings : cabac=1 / ref=3 / deblock=1:0:0 / analyse=0x1:0x111 / me=hex / subme=7 / psy=1 / psy_rd=1.00:0.00 / mixed_ref=1 / me_range=16 / chroma_me=1 / trellis=1 / 8x8dct=0 / cqm=0 / deadzone=21,11 / fast_pskip=1 / chroma_qp_offset=-2 / threads=6 / lookahead_threads=1 / sliced_threads=0 / nr=0 / decimate=1 / interlaced=0 / bluray_compat=0 / constrained_intra=0 / bframes=3 / b_pyramid=2 / b_adapt=1 / b_bias=0 / direct=1 / weightb=1 / open_gop=0 / weightp=2 / keyint=150 / keyint_min=15 / scenecut=50 / intra_refresh=0 / rc_lookahead=40 / rc=2pass / mbtree=1 / bitrate=225 / ratetol=100.0 / qcomp=0.60 / qpmin=0 / qpmax=69 / qpstep=4 / cplxblur=20.0 / qblur=0.5 / ip_ratio=1.40 / aq=1:1.00
Encoded date : UTC 2014-10-31 14:20:55
Tagged date : UTC 2014-10-31 14:20:55

Audio
ID : 1
Format : AAC
Format/Info : Advanced Audio Codec
Format profile : LC
Codec ID : 40
Duration : 1mn 53s
Bit rate mode : Constant
Bit rate : 64.0 Kbps
Channel(s) : 1 channel
Channel positions : Front: C
Sampling rate : 48.0 KHz
Compression mode : Lossy
Stream size : 888 KiB (48%)
Encoded date : UTC 2014-10-31 14:20:55
Tagged date : UTC 2014-10-31 14:20:55

Постеры

Соцсети

 

Статистика

Автор: Солнышко
Добавлен: 26 фев 2017, 15:13
Размер: 664.33 МБ
Размер: 696 596 033 байт
Сидеров: 0
Личеров: 0
Скачали: 0
Здоровье: 0%
Скорость скачивания: 0 байт/сек
Скорость раздачи: 0 байт/сек
Последний сидер: Нет
Последний личер: Нет
Приватный: Нет (DHT включён)
Сеть и безопасность Скачать торрент
Скачать торрент
[ Размер 60.68 КБ / Просмотров 3 ]

Поделиться



  • Похожие торренты
    Ответы
    Просмотры
    Последнее сообщение

Вернуться в Сеть и безопасность