Сообщение

[PENTESTIT] Корпоративные лаборатории-тестирование на проникновение. Эксперт [2015, RUS]

Сообщение Солнышко » 26 фев 2017, 15:23

[PENTESTIT] Корпоративные лаборатории - тестирование на проникновение. Эксперт (2015)

Страна: Россия
Тематика: Хакинг и безопасность
Тип материала: Видеокурс
Продолжительность: 24ч:40м:30с
Язык: Русский
Перевод: Не требуется
Год выпуска: 2015
Производитель: Pentestit
Сайт производителя: www.pentestit.ru/labs/corp-lab
Автор: Коллектив

Файлы примеров: присутствуют
Формат видео: MP4
Видео: AVC, 1238x984, 5:4, 29.858 кадров/сек, 117 Кбит/сек
Аудио: AAC, 44,1 КГц, ~128 Кбит/сек, 2 канала

Описание:

Чтобы защититься от хакеров, нужно уметь думать и действовать, как хакер. Иначе невозможно понять, что является
уязвимостью, которая сможет помочь злоумышленнику преодолеть ваши системы защиты, а что - нет.
Для специалистов, заинтересованных в получении качественной практической подготовки в области информационной безопасности
и тестирования на проникновение, мы разрабатываем программу "Корпоративные лаборатории". Уникальность "Корпоративных
лабораторий" заключается в симбиозе формата обучения, качества материала и специализированных ресурсов, на которых
проводится обучение. Помимо сильнейшей практической подготовки, программа включает курсы-вебинары, по уровню сравнимые с
материалом профессиональных конференций по практической безопасности.

Аудитория:

-для системных администраторов: получение знаний, позволяющих безопасно настраивать системы;
-для специалистов ИБ: изучение инструментов и психологии злоумышленника, разработка более эффективной политики ИБ;
-для пентестеров: освоение новых инструментов и методов тестирования на проникновение, подтверждение квалификации;
-для всех сотрудников: повышение общей осведомленности ИБ;
-для компании: подготовка к прохождению аудита соответствия PCI DSS.

Программа и процесс обучения:

В "Корпоративных лабораториях" мы закладываем практически все известные вектора атак: на сетевые службы и сервисы, веб-
приложения, ОС и прикладное ПО. Действия специалистов, проходящих обучение, идентичны действиям внешнего и внутреннего
нарушителя, атакующего системы. В процессе подготовки специалисты изучают природу уязвимостей, инструменты эксплуатации и
способы защиты, знакомятся с психологией злоумышленника.
*Введение. Законодательство.Тестирование на проникновение
*Актуальные векторы атак, BYOD и APT
*Network Security сканирование, ошибки в конфигурациях, эксплуатация и пост эксплуатация
*Web Security природа SQL-инъекций, основы XSS и инструменты для эксплуатации веб-уязвимостей full
*Построение эффективных систем обеспечения ИБ вводная информация и обзор существующих IDS
*Intercepter-NG инструмент для проведения автоматизированных сетевых атак
*Теория и практика проведения различных атак
*Продвинутый workshop по SQLi, с использованием атак на базы данных MySQL, MS SQL и PostgreSQL
*Advanced network security_ продвинутые методы поиска уязвимостей в сетевой инфраструктуре
*Продвинутый workshop по XSS. Рассмотрение наиболее актуальных разновидностей XSS
*Построение эффективных систем обеспечения ИБ_ настройка и демонстрация специализированных утилит и методов
*Пост-эксплуатация в Windows системах. Хеши и пароли
*Форензика. Расследование киберпреступлений
*Пост-эксплуатация в GNU Linux системах. Повышение привелегий
*Пост-эксплуатация в Windows системах. Эволюция атак pass-the-hash
*Пост-эксплуатация в Windows системах. Повышение привилегий
*Форензика. Использование Volatily Framework для анализа дампов RAM и файловых систем
General
Complete name : 2. Дмитренко Александр Теория И Практика Проведения Различных Атак.mp4
Format : MPEG-4
Format profile : Base Media / Version 2
Codec ID : mp42
File size : 127 MiB
Duration : 1h 10mn
Overall bit rate mode : Variable
Overall bit rate : 253 Kbps
Encoded date : UTC 2036-02-06 06:28:16
Tagged date : UTC 2036-02-06 06:28:16
Writing application : HandBrake 0.10.2 2015060900

Video
ID : 1
Format : AVC
Format/Info : Advanced Video Codec
Format profile : Main@L4
Format settings, CABAC : Yes
Format settings, ReFrames : 4 frames
Codec ID : avc1
Codec ID/Info : Advanced Video Coding
Duration : 1h 10mn
Bit rate : 117 Kbps
Width : 1 238 pixels
Height : 984 pixels
Display aspect ratio : 5:4
Frame rate mode : Variable
Frame rate : 29.858 fps
Minimum frame rate : 0.100 fps
Maximum frame rate : 30.010 fps
Color space : YUV
Chroma subsampling : 4:2:0
Bit depth : 8 bits
Scan type : Progressive
Bits/(Pixel*Frame) : 0.003
Stream size : 58.9 MiB (46%)
Writing library : x264 core 142 r2479 dd79a61
Encoded date : UTC 2036-02-06 06:28:16
Tagged date : UTC 2036-02-06 06:28:16
Color range : Limited
Color primaries : BT.709
Transfer characteristics : BT.709
Matrix coefficients : BT.709

Audio
ID : 2
Format : AAC
Format/Info : Advanced Audio Codec
Format profile : LC
Codec ID : 40
Duration : 1h 10mn
Bit rate mode : Variable
Bit rate : 128 Kbps
Channel(s) : 2 channels
Channel positions : Front: L R
Sampling rate : 44.1 KHz
Compression mode : Lossy
Stream size : 64.4 MiB (51%)
Title : Stereo / Stereo
Encoded date : UTC 2036-02-06 06:28:16
Tagged date : UTC 2036-02-06 06:28:16

Постеры

Соцсети

 

Статистика

Автор: Солнышко
Добавлен: 26 фев 2017, 15:23
Размер: 2.03 ГБ
Размер: 2 184 851 096 байт
Сидеров: 41
Личеров: 4
Скачали: 2
Здоровье: 100%
Раздающих: 100%
Скорость скачивания: 0 байт/сек
Скорость раздачи: 0 байт/сек
Последний сидер: 8 месяцев 18 дней 4 часа 53 минуты 53 секунды назад
Последний личер: 8 месяцев 18 дней 5 часов 16 минут 37 секунд назад
Приватный: Нет (DHT включён)
Сеть и безопасность Скачать торрент
Скачать торрент
[ Размер 19.5 КБ / Просмотров 12 ]

Поделиться



  • Похожие торренты
    Ответы
    Просмотры
    Последнее сообщение

Вернуться в Сеть и безопасность