Сообщение

[Lynda.com] Troubleshooting Your Network with Wireshark [2015, RUS]

Сообщение Солнышко » 26 фев 2017, 15:41

[Lynda.com] Troubleshooting Your Network with Wireshark [2015, RUS]

Год выпуска: 2015
Сайт производителя: Lynda.com
Автор: Lisa Bock
Продолжительность: 2:36:21
Тип раздаваемого материала: Видеоурок
Язык: Русский (перевод Samigg)
Субтитры: Английские (в zip-архиве)

Описание:
Wireshark – это программа-анализатор трафика для компьютерных сетей с открытым исходным кодом.

Узнайте о том, как с помощью Wireshark осуществлять захват и анализ сетевого трафика, выявлять проблемы сетей, подозрительную активность и сетевые вторжения.
В этом курсе Lisa Bock рассматривает фундаментальные концепции и функции, лежащие в основе Wireshark, например модель OSI, способы анализа сетевого трафика, захват пакетов. Вы сможете начать понимать значения полей в сетевых пакетах, выявлять ненормальные сетевые соединения.
Вы также познакомитесь с распространёнными типами сетевых атак и сетевыми протоколами, такими как HTTP, FTP, TCP, DNS, ICMP, UDP.

Файлы примеров: присутствуют
Формат видео: MP4
Видео: AVC (H264), 1280х720, 15 fps
Аудио: AAC, 44100 Hz, 111 Кбит/с
Код: Выделить всё
General
Complete name                  : 00_03. Загрузка и установка Wireshark.mp4
Format                         : MPEG-4
Format profile                 : Base Media
Codec ID                       : isom
File size                      : 10.4 MiB
Duration                       : 4mn 55s
Overall bit rate mode          : Variable
Overall bit rate               : 294 Kbps
Writing application            : Lavf55.19.104

Video
ID                             : 1
Format                         : AVC
Format/Info                    : Advanced Video Codec
Format profile                 : Main@L3.1
Format settings, CABAC         : Yes
Format settings, ReFrames      : 5 frames
Codec ID                       : avc1
Codec ID/Info                  : Advanced Video Coding
Duration                       : 4mn 55s
Bit rate mode                  : Variable
Bit rate                       : 179 Kbps
Maximum bit rate               : 1 000 Kbps
Width                          : 1 280 pixels
Height                         : 720 pixels
Display aspect ratio           : 16:9
Frame rate mode                : Constant
Frame rate                     : 15.000 fps
Color space                    : YUV
Chroma subsampling             : 4:2:0
Bit depth                      : 8 bits
Scan type                      : Progressive
Bits/(Pixel*Frame)             : 0.013
Stream size                    : 6.30 MiB (61%)
Writing library                : x264 core 129
Language                       : English

Audio
ID                             : 2
Format                         : AAC
Format/Info                    : Advanced Audio Codec
Format profile                 : LC
Codec ID                       : 40
Duration                       : 4mn 55s
Bit rate mode                  : Constant
Bit rate                       : 111 Kbps
Channel(s)                     : 2 channels
Channel positions              : Front: L R
Sampling rate                  : 44.1 KHz
Compression mode               : Lossy
Stream size                    : 3.92 MiB (38%)
Language                       : Russian
Время раздачи: до первых 5 скачавших

Постеры

Соцсети

 

Статистика

Автор: Солнышко
Добавлен: 26 фев 2017, 15:41
Размер: 399.31 МБ
Размер: 418 704 938 байт
Сидеров: 85
Личеров: 10
Скачали: 4
Здоровье: 100%
Раздающих: 100%
Скорость скачивания: 0 байт/сек
Скорость раздачи: 0 байт/сек
Последний сидер: 2 месяца 6 дней 9 часов 30 минут 3 секунды назад
Последний личер: 2 месяца 6 дней 9 часов 54 минуты 11 секунд назад
Приватный: Нет (DHT включён)
Сеть и безопасность Скачать торрент
Скачать торрент
[ Размер 21.47 КБ / Просмотров 18 ]

Поделиться



  • Похожие торренты
    Ответы
    Просмотры
    Последнее сообщение

Вернуться в Сеть и безопасность