Сообщение

(Итальянский язык) T. Marin, M. Dominici - Nuovo Progetto italiano Video 2 [2009 г., M4V, ITA] [Временная для слияния с основной раздачей]

Сообщение Нюша » 11 май 2012, 22:39

(Итальянский язык) T. Marin, M. Dominici - Nuovo Progetto italiano Video 2 [2009 г., M4V, ITA]
временная для объединения с http://smart-torrent.org/viewtopic.php?t=3257679
Пережатое видео
MediaInfo
Полное имя : H:\STORAGE\LANGUAGES\Italian\VIDEO\EDU\ITA\progetto_italiano_video_2\M4V\VTS_01_1.m4v
Формат : MPEG-4
Идентификатор кодека : M4V
Размер файла : 18,5 Мбайт
Продолжительность : 3 м. 0 с.
Общий поток : 861 Кбит/сек
Дата кодирования : UTC 2012-02-24 21:07:03
Дата пометки : UTC 2012-02-24 21:07:03
Библиотека кодирования : AVS
Видео
Идентификатор : 1
Формат : AVC
Формат/Информация : Advanced Video Codec
Профиль формата : Baseline@L3.0
Параметр CABAC формата : Нет
Параметр ReFrames формата : 1 кадр
Идентификатор кодека : avc1
Идентификатор кодека/Информация : Advanced Video Coding
Продолжительность : 3 м. 0 с.
Битрейт : 729 Кбит/сек
Ширина : 640 пикселей
Высота : 480 пикселей
Соотношение сторон : 4:3
Режим частоты кадров : Постоянный
Частота кадров : 30,000 кадров/сек
Цветовое пространство : YUV
Субдискретизация насыщенности : 4:2:0
Битовая глубина : 8 бит
Тип развёртки : Прогрессивная
Бит/(Пиксели*Кадры) : 0.079
Размер потока : 15,7 Мбайт (85%)
Язык : English
Дата кодирования : UTC 2012-02-24 21:07:03
Дата пометки : UTC 2012-02-24 21:07:03
Аудио
Идентификатор : 2
Формат : AAC
Формат/Информация : Advanced Audio Codec
Профиль формата : LC
Идентификатор кодека : 40
Продолжительность : 3 м. 0 с.
Вид битрейта : Постоянный
Битрейт : 128 Кбит/сек
Каналы : 2 канала
Расположение каналов : Front: L R
Частота : 48,0 КГц
Метод сжатия : С потерями
Размер потока : 2,69 Мбайт (15%)
Язык : English
Дата кодирования : UTC 2012-02-24 21:07:03
Дата пометки : UTC 2012-02-24 21:07:03

Постеры

Соцсети

 

Статистика

Автор: Нюша
Добавлен: 11 май 2012, 22:39
Размер: 698.1 МБ
Размер: 732 007 079 байт
Сидеров: 8
Личеров: 7
Скачали: 0
Здоровье: 100%
Раздающих: 100%
Скорость скачивания: 0 байт/сек
Скорость раздачи: 0 байт/сек
Последний сидер: 1 год 13 дней 4 часа 48 минут 19 секунд назад
Последний личер: 1 год 13 дней 4 часа 48 минут 19 секунд назад
Приватный: Нет (DHT включён)
Итальянский язык Скачать торрент
Скачать торрент
[ Размер 16.54 КБ / Просмотров 8 ]

Поделиться



  • Похожие торренты
    Ответы
    Просмотры
    Последнее сообщение

Вернуться в Итальянский язык