Сообщение

Lynda.com | Создание эффективной стратегии написания контента для вашего сайта (2013) PCRec

Сообщение Nik » 26 авг 2017, 10:49

Lynda.com | Создание эффективной стратегии написания контента для вашего сайта (2013) PCRec

Автор (режиссер): Lynda.com
Преподаватель: Дженни Уорнер
Жанр: Обучающие видео-уроки
Язык: Русский
Продолжительность: 02:04:28
Качество видео: PCRec
Видеокодек: AVC
Битрейт видео: ~537 - 2142 kb/s
Размер кадра: 960x540
Аудиокодек: MP3
Битрейт аудио: 96 kb/s, 1 Ch
Доп. материалы: Есть

Описание:
Откройте для себя, что значит быть стратегом по написанию контента. Вы узнаете, что делают эти люди, как они это делают и почему стратегия написания контента так важна в сети, а также, почему она является такой востребованной профессией.
Автор Дженни Уорнер показывает, как анализировать, расставлять приоритеты и мыслить стратегически при написании контента. Внимание уделяется формату (текст, изображения, анимация, инфографика) и каналам передачи информации. Дженни покажет, как принять необходимые решения для того, чтобы изменить устаревший формат сайта, перегруженного информацией и превратить его в многогранный, мультимедийный проект, включающий в себя блог, новостные рассылки и профиль в социальных сетях.
По мере прохождения курса вы узнаете о ключевых документах и инструментах стратегии написания контента. Они включают в себя методы создания содержания контента, gap анализ и создание матрицы контента. Также, в курсе рассказано о том, как очень часто создание стратегии по написанию контента накладывается на процесс создания информации, и о том, как постоянное тестирование своих теорий влияет на долгосрочный успех.
· Что такое стратегия написания контента?
· Постановка четких целей и управление ожидаемыми результатами
· Создание содержания контента
· Определение важных элементов контента при помощи gap анализа
· Управление развитием при помощи матрицы контента
· Создание инструкций по определению стиля и создание редакционного календаря
· Создание структурных схем и карт сайта
· Выбор наилучшего проводника для вашего послания
· Тестирование сайта и получение обратной связи от его пользователей
Код:
Код: Выделить всё
Общее
Уникальный идентификатор                 : 191648141587892740621179618942549656206 (0x902E16E74FAA7EBFBC7CE428C9AE828E)
Полное имя                               : C:\[Lynda.com] - Создание эффективной стратегии написания контента для вашего сайта - 2013\0.1. Начало работы с контент-стратегией\01_05 Создание gap-анализа контента.mkv
Формат                                   : Matroska
Версия формата                           : Version 4 / Version 2
Размер файла                             : 23,7 Мбайт
Продолжительность                        : 5 м. 8 с.
Режим общего битрейта                    : Переменный
Общий поток                              : 646 Кбит/сек
Дата кодирования                         : UTC 2014-03-21 19:00:09
Программа кодирования                    : mkvmerge v6.2.0 ('Promised Land') built on Apr 28 2013 12:22:01
Библиотека кодирования                   : libebml v1.3.0 + libmatroska v1.4.0

Видео
Идентификатор                            : 1
Формат                                   : AVC
Формат/Информация                        : Advanced Video Codec
Профиль формата                          :
Параметр CABAC формата                   : Нет
Параметр ReFrames формата                : 1 кадр
Параметр GOP формата                     : M=1, N=15
Идентификатор кодека                     : V_MPEG4/ISO/AVC
Продолжительность                        : 5 м. 8 с.
Вид битрейта                             : Переменный
Битрейт                                  : 537 Кбит/сек
Максимальный битрейт                     : 7385 Кбит/сек
Ширина                                   : 960 пикселей
Высота                                   : 540 пикселей
Соотношение сторон                       : 16:9
Режим частоты кадров                     : Постоянный
Частота кадров                           : 29,970 кадров/сек
Цветовое пространство                    : YUV
Субдискретизация насыщенности            : 4:2:0
Битовая глубина                          : 8 бит
Тип развёртки                            : Прогрессивная
Бит/(Пиксели*Кадры)                      : 0.035
Размер потока                            : 19,7 Мбайт (83%)
Default                                  : Да
Forced                                   : Нет

Аудио
Идентификатор                            : 2
Формат                                   : MPEG Audio
Версия формата                           : Version 1
Профиль формата                          : Layer 3
Идентификатор кодека                     : A_MPEG/L3
Идентификатор кодека/Подсказка           : MP3
Продолжительность                        : 5 м. 8 с.
Вид битрейта                             : Постоянный
Битрейт                                  : 96,0 Кбит/сек
Каналы                                   : 1 канал
Частота                                  : 48,0 КГц
Метод сжатия                             : С потерями
Размер потока                            : 3,53 Мбайт (15%)
Default                                  : Да
Forced                                   : Нет

Код:
Код: Выделить всё
Общее
Уникальный идентификатор                 : 249634788158513171009631493142770103507 (0xBBCDE94F61D03969A2CE534F4D4C34D3)
Полное имя                               : C:\[Lynda.com] - Создание эффективной стратегии написания контента для вашего сайта - 2013\0.3. Выбор наилучшего средства передачи каждого сообщения\03_01 Важность и ценность текста и изображений.mkv
Формат                                   : Matroska
Версия формата                           : Version 4 / Version 2
Размер файла                             : 78,6 Мбайт
Продолжительность                        : 4 м. 48 с.
Режим общего битрейта                    : Переменный
Общий поток                              : 2284 Кбит/сек
Дата кодирования                         : UTC 2014-03-21 19:06:21
Программа кодирования                    : mkvmerge v6.2.0 ('Promised Land') built on Apr 28 2013 12:22:01
Библиотека кодирования                   : libebml v1.3.0 + libmatroska v1.4.0

Видео
Идентификатор                            : 1
Формат                                   : AVC
Формат/Информация                        : Advanced Video Codec
Профиль формата                          :
Параметр CABAC формата                   : Нет
Параметр ReFrames формата                : 1 кадр
Параметр GOP формата                     : M=1, N=15
Идентификатор кодека                     : V_MPEG4/ISO/AVC
Продолжительность                        : 4 м. 48 с.
Вид битрейта                             : Переменный
Битрейт                                  : 2142 Кбит/сек
Максимальный битрейт                     : 7385 Кбит/сек
Ширина                                   : 960 пикселей
Высота                                   : 540 пикселей
Соотношение сторон                       : 16:9
Режим частоты кадров                     : Постоянный
Частота кадров                           : 29,970 кадров/сек
Цветовое пространство                    : YUV
Субдискретизация насыщенности            : 4:2:0
Битовая глубина                          : 8 бит
Тип развёртки                            : Прогрессивная
Бит/(Пиксели*Кадры)                      : 0.138
Размер потока                            : 73,7 Мбайт (94%)
Default                                  : Да
Forced                                   : Нет

Аудио
Идентификатор                            : 2
Формат                                   : MPEG Audio
Версия формата                           : Version 1
Профиль формата                          : Layer 3
Идентификатор кодека                     : A_MPEG/L3
Идентификатор кодека/Подсказка           : MP3
Продолжительность                        : 4 м. 48 с.
Вид битрейта                             : Постоянный
Битрейт                                  : 96,0 Кбит/сек
Каналы                                   : 1 канал
Частота                                  : 48,0 КГц
Метод сжатия                             : С потерями
Размер потока                            : 3,30 Мбайт (4%)
Default                                  : Да
Forced                                   : Нет
Скриншоты:


Время раздачи: 24/7 (круглосуточно)

Mail.Ru - Лучшая благодарность поделиться ссылкой с друзьями в соц. сетях

Постеры

Соцсети

 

Статистика

Автор: Nik
Добавлен: 26 авг 2017, 10:49
Размер: 1.19 ГБ
Размер: 1 273 324 488 байт
Сидеров: 1
Личеров: 0
Скачали: 0
Здоровье: 100%
Раздающих: 100%
Статус:
Скорость скачивания: 0 байт/сек
Скорость раздачи: 0 байт/сек
Последний сидер: 10 месяцев 4 дня 18 часов 46 минут 5 секунд назад
Последний личер: Нет
Приватный: Нет (DHT включён)
Скачать торрент
Скачать торрент
[ Размер 18.01 КБ / Просмотров 5 ]

Поделиться



Вернуться в Разное (Компьютер)