Сообщение

Musketier Media | 102 позы в сексе (2010) DVDRip

Сообщение Nik » 27 авг 2017, 14:03

Musketier Media | 102 позы в сексе (2010) DVDRip

Автор (режиссер): Musketier Media
Производство: Германия
Жанр: Документальный, Обучающее видео, Эротика

Описание:
Опытнее тренеры не покладая рук и других частей тела научат вас управляться с вашим боевым оружием! Теперь вы сможете найти вход даже с завязанными глазами, принимать самые разные позы и наконец-то доберетесь до загадочной точки G. Ваша девушка останется в полном восторге, и по утрам вам будет подавать кофе в постель, а после работы будет встречать вас теплая и уютная квартира с ароматом свежесваренного борща. Она расцветет и засияет как алмаз, радуя вас каждый день новым эротическим бельем, которое она, конечно, купит за ваши деньги, но это же все для вас! 102 позы, это не просто позы для секса, это выбор жизненной позиции! Добавьте в вашу серую жизнь немного разнообразия и увидите, что вам не захочется возвращаться назад. Занимайтесь сексом и будьте счастливы!

Возраст: 16+
Продолжительность: 01:42:50
Качество видео: DVDRip
Язык: Немецкий

Видео: Xvid, 624x464, ~1841 kbps
Аудио: AC3, 2 ch, 192 kbps, CBR
Код:
Код: Выделить всё
Формат : AVI
Формат/Информация : Audio Video Interleave
Размер файла : 1,47 Гбайт
Продолжительность : 1 ч. 42 м.
Общий поток : 2040 Кбит/сек
Название фильма : Relizer.net
Режиссёр : Relizer.net
Программа кодирования : VirtualDubMod 1.5.4.1 (build 2178/release)
Примечание : Relizer.net

Видео
Идентификатор : 0
Формат : MPEG-4 Visual
Профиль формата : Advanced Simple@L5
Параметр BVOP формата : Нет
Параметр QPel формата : Нет
Параметр GMC формата : Без точки перехода
Параметр матрицы формата : Выборочная
Идентификатор кодека : XVID
Идентификатор кодека/Подсказка : XviD
Продолжительность : 1 ч. 42 м.
Битрейт : 1841 Кбит/сек
Ширина : 624 пикселя
Высота : 464 пикселя
Соотношение сторон : 4:3
Частота кадров : 25,000 кадров/сек
Цветовое пространство : YUV
Субдискретизация насыщенности : 4:2:0
Битовая глубина : 8 бит
Тип развёртки : Прогрессивная
Метод сжатия : С потерями
Бит/(Пиксели*Кадры) : 0.254
Размер потока : 1,32 Гбайт (90%)
Библиотека кодирования : XviD 64

Аудио
Идентификатор : 1
Формат : AC-3
Формат/Информация : Audio Coding 3
Расширение режима : CM (complete main)
Параметр Endianness формата : Big
Идентификатор кодека : 2000
Продолжительность : 1 ч. 42 м.
Вид битрейта : Постоянный
Битрейт : 192 Кбит/сек
Каналы : 2 канала
Расположение каналов : Front: L R
Частота : 48,0 КГц
Метод сжатия : С потерями
Размер потока : 141 Мбайт (9%)
Выравнивание : Разделение по промежуткам
Продолжительность промежутка : 96 мс. (2,40 видеокадра)
Время предзагрузки промежутка : 96 мс.

Скриншоты:



Время раздачи: По мере возможности..

bingbot - Лучшая благодарность поделиться ссылкой с друзьями в соц. сетях

Постеры

Соцсети

 

Статистика

Автор: Nik
Добавлен: 27 авг 2017, 14:03
Размер: 1.47 ГБ
Размер: 1 573 398 528 байт
Сидеров: 0
Личеров: 1
Скачали: 0
Здоровье: ???%
Статус:
Скорость скачивания: 0 байт/сек
Скорость раздачи: 0 байт/сек
Последний сидер: 1 год 1 месяц 15 дней 14 часов 18 минут 3 секунды назад
Последний личер: 1 год 1 месяц 15 дней 14 часов 43 минуты 44 секунды назад
Приватный: Нет (DHT включён)
Здоровье и спорт Скачать торрент
Скачать торрент
[ Размер 15.54 КБ / Просмотров 4 ]

Поделиться



Вернуться в Здоровье и спорт