Алексей Лиханов | Хатха йога. Начальный уровень (2016) HDRip [H.264/1080p]

Обучающие материалы про здоровый образ жизни
Торрент Сидеров Личеров Размер
torrent_825930.torrent
0 0 1.67 ГБ
Аватара пользователя
Nik
Сообщения: 25935
Зарегистрирован: 05 ноя 2011, 22:02

Алексей Лиханов | Хатха йога. Начальный уровень (2016) HDRip [H.264/1080p]

Сообщение Nik » 27 авг 2017, 14:04

Алексей Лиханов | Хатха йога. Начальный уровень (2016) HDRip

Автор (режиссер): Алексей Лиханов
Производство: Россия
Жанр: йога
orenyoga

Описание:
Комплекс упражнений начального уровня. С помощью предложенных упражнений вы улучшите гибкость и подвижность позвоночника, тазобедренных и плечевых суставов, задней поверхности ног, избавитесь от мышечных зажимов и жесткости сухожилий, обретете гибкие и стройные ноги и руки.
Содержание: Суставная разминка, комплекс Сурья Намаскар "Приветствие Солнцу", Базовый комплекс асан.

Продолжительность: 00:45:19
Качество видео: HDRip

Видео: AVC/H.264, 1920х1080, ~5070Kbps
Аудио: AAC, 2 ch, 192Kbps, CBR
Код:

Код: Выделить всё

Format                      : MPEG-4
File size                   : 1.67 GiB
Duration                    : 45mn 19s

Video
Format                      : AVC
Format/Info                 : Advanced Video Codec
Duration                    : 45mn 19s
Bit rate                    : 5 070 Kbps
Width                       : 1 920 pixels
Height                      : 1 080 pixels
Display aspect ratio        : 16:9
Frame rate mode             : Constant
Frame rate                  : 29.970 (30000/1001) fps
Standard                    : NTSC
Color space                 : YUV
Chroma subsampling          : 4:2:0
Bit depth                   : 8 bits
Scan type                   : Progressive
Bits/(Pixel*Frame)          : 0.082
Stream size                 : 1.61 GiB (96%)

Audio
Format                      : AAC
Format/Info                 : Advanced Audio Codec
Format profile              : LC
Codec ID                    : 40
Duration                    : 45mn 19s
Bit rate mode               : Constant
Bit rate                    : 192 Kbps
Channel(s)_Original         : 2 channels
Sampling rate               : 48.0 KHz
Frame rate                  : 46.875 fps (1024 spf)
Compression mode            : Lossy
Stream size                 : 62.3 MiB (4%)
Скриншоты:
Время раздачи: с 09:00 до 23:30
У вас нет необходимых прав для просмотра вложений в этом сообщении.

TOPIC_VIEWER - Лучшая благодарность поделиться ссылкой с друзьями в соц. сетях