Сообщение

Ярослав Бодунков | Польза и вред продуктов питания (2014, 2015) WEBRip [H.264]

Сообщение Nik » 27 авг 2017, 14:06

Ярослав Бодунков | Польза и вред продуктов питания (2014, 2015) WEBRip

Автор (режиссер): Ярослав Бодунков
Жанр: Питание

Описание:
Ярослав Николаевич Бодунков - создатель русского алфавита из 81 буквы и шахмат 9x9.
В данных видео рассказывается о воздействии продуктов питания на организм человека.
Один и тот же продукт может по-разному воздействовать в зависимости от способа приготовления и возраста человека.
В данных видео рассказывается о следующих продуктах питания: молочные продукты, кофе, соль, сахар, горчица и т.д.

Продолжительность: 03:04:50
Качество видео: WEBRip

Видео: AVC/H.264, 640x360, ~264 kbps
Аудио: AAC, 2 ch, 96.0 kbps, VBR
Код:
Код: Выделить всё
General
Complete name               : C:\Ярослав Бодунков\Введение. Познание Вреда и Пользы Продуктов питания на организм Человека, Молоко и Молочные продукты.mp4
Format                      : MPEG-4
Format profile              : Base Media / Version 2
Codec ID                    : mp42 (mp42/isom)
File size                   : 303 MiB
Duration                    : 1 h 56 min
Overall bit rate mode       : Variable
Overall bit rate            : 365 kb/s
Encoded date                : UTC 2014-09-11 02:21:32
Tagged date                 : UTC 2014-09-11 02:21:32
gsst                        : 0
gstd                        : 7327821
gssd                        : B5053F0C6
gshh                        : r3---sn-535qv-n8me.googlevideo.com

Video
ID                          : 1
Format                      : AVC
Format/Info                 : Advanced Video Codec
Format profile              : Baseline@L3
Format settings, CABAC      : No
Format settings, ReFrames   : 1 frame
Codec ID                    : avc1
Codec ID/Info               : Advanced Video Coding
Duration                    : 1 h 56 min
Bit rate                    : 264 kb/s
Width                       : 640 pixels
Height                      : 360 pixels
Display aspect ratio        : 16:9
Frame rate mode             : Constant
Frame rate                  : 25.000 FPS
Color space                 : YUV
Chroma subsampling          : 4:2:0
Bit depth                   : 8 bits
Scan type                   : Progressive
Bits/(Pixel*Frame)          : 0.046
Stream size                 : 220 MiB (72%)
Language                    : English
Encoded date                : UTC 2014-09-11 02:21:32
Tagged date                 : UTC 2014-09-11 02:21:32

Audio
ID                          : 2
Format                      : AAC
Format/Info                 : Advanced Audio Codec
Format profile              : LC
Codec ID                    : 40
Duration                    : 1 h 56 min
Source duration             : 1 h 56 min
Bit rate mode               : Variable
Bit rate                    : 96.0 kb/s
Channel(s)                  : 2 channels
Channel positions           : Front: L R
Sampling rate               : 44.1 kHz
Frame rate                  : 43.066 FPS (1024 spf)
Compression mode            : Lossy
Stream size                 : 79.8 MiB (26%)
Source stream size          : 79.8 MiB (26%)
Language                    : English
Encoded date                : UTC 2014-09-11 02:21:32
Tagged date                 : UTC 2014-09-11 02:21:32
mdhd_Duration               : 6973330

General
Complete name               : C:\Ярослав Бодунков\ВОЗДЕЙСТВИЕ МАСЛА, КОФЕ, КАКАО, СОЛИ, САХАРА, ГОРЧИЦЫ.mp4
Format                      : MPEG-4
Format profile              : Base Media / Version 2
Codec ID                    : mp42 (isom/mp42)
File size                   : 191 MiB
Duration                    : 1 h 8 min
Overall bit rate mode       : Variable
Overall bit rate            : 389 kb/s
Encoded date                : UTC 2015-10-27 05:38:17
Tagged date                 : UTC 2015-10-27 05:38:17
gsst                        : 0
gstd                        : 4117338
gssd                        : B4A7D6F64
gshh                        : r4---sn-n8v7sne7.googlevideo.com

Video
ID                          : 1
Format                      : AVC
Format/Info                 : Advanced Video Codec
Format profile              : Baseline@L3
Format settings, CABAC      : No
Format settings, ReFrames   : 1 frame
Codec ID                    : avc1
Codec ID/Info               : Advanced Video Coding
Duration                    : 1 h 8 min
Bit rate                    : 291 kb/s
Maximum bit rate            : 870 kb/s
Width                       : 640 pixels
Height                      : 360 pixels
Display aspect ratio        : 16:9
Frame rate mode             : Constant
Frame rate                  : 25.000 FPS
Color space                 : YUV
Chroma subsampling          : 4:2:0
Bit depth                   : 8 bits
Scan type                   : Progressive
Bits/(Pixel*Frame)          : 0.050
Stream size                 : 143 MiB (75%)
Tagged date                 : UTC 2015-10-27 05:38:45

Audio
ID                          : 2
Format                      : AAC
Format/Info                 : Advanced Audio Codec
Format profile              : LC
Codec ID                    : 40
Duration                    : 1 h 8 min
Bit rate mode               : Variable
Bit rate                    : 96.0 kb/s
Maximum bit rate            : 102 kb/s
Channel(s)                  : 2 channels
Channel positions           : Front: L R
Sampling rate               : 44.1 kHz
Frame rate                  : 43.066 FPS (1024 spf)
Compression mode            : Lossy
Stream size                 : 47.1 MiB (25%)
Title                       : IsoMedia File Produced by Google, 5-11-2011
Encoded date                : UTC 2015-10-27 05:38:30
Tagged date                 : UTC 2015-10-27 05:38:45

Скриншоты:



Время раздачи: c 18:00 до 22:00 (Московское время) или до 10 скачавших

Googlebot - Лучшая благодарность поделиться ссылкой с друзьями в соц. сетях

Постеры

Соцсети

 

Статистика

Автор: Nik
Добавлен: 27 авг 2017, 14:06
Размер: 494.23 МБ
Размер: 518 237 845 байт
Сидеров: 0
Личеров: 0
Скачали: 0
Здоровье: 0%
Статус:
Скорость скачивания: 0 байт/сек
Скорость раздачи: 0 байт/сек
Последний сидер: Нет
Последний личер: Нет
Приватный: Нет (DHT включён)
Здоровье и спорт Скачать торрент
Скачать торрент
[ Размер 20.55 КБ / Просмотров 0 ]

Поделиться



  • Похожие торренты
    Ответы
    Просмотры
    Последнее сообщение

Вернуться в Здоровье и спорт