Steve Cotter | Полное руководство по гиревому спорту / The Complete Guide to Kettlebell (2009) DVDRip [EN]

Обучающие материалы про здоровый образ жизни
Торрент Сидеров Личеров Размер
torrent_879153.torrent
0 0 1.41 ГБ
Аватара пользователя
Nik
Сообщения: 25935
Зарегистрирован: 05 ноя 2011, 22:02

Steve Cotter | Полное руководство по гиревому спорту / The Complete Guide to Kettlebell (2009) DVDRip [EN]

Сообщение Nik » 27 авг 2017, 14:07

Steve Cotter | Полное руководство по гиревому спорту / The Complete Guide to Kettlebell (2009) DVDRip [EN]

Автор (режиссер): Стив Коттер / Steve Cotter
Производство: США
Жанр: Гиревой спорт, гири

Описание:
Для любителей железного шарика с ручкой 191 упражнение с гирями в исполнении великолепного Стива Коттера.

Продолжительность: 02:04:32
Качество видео: DVDRip
Язык: Английский

Видео: Xvid, 640x480, ~1 484 Kbps
Аудио: MP3, 2 ch, 128, CBR
Код:
The Complete Guide to Kettlebell\The Complete Guide to Kettlebell.avi
Format                      : AVI
Format/Info                 : Audio Video Interleave
File size                   : 1.41 GiB
Duration                    : 2 h 4 min
Overall bit rate            : 1 625 kb/s
Writing application         : Lavf52.13.0
Writing library             : Boilsoft AVI tool build 30012/release

Video
ID                          : 0
Format                      : xvid
Codec ID                    : xvid
Duration                    : 2 h 4 min
Bit rate                    : 1 484 kb/s
Width                       : 640 pixels
Height                      : 480 pixels
Display aspect ratio        : 4:3
Frame rate                  : 29.970 FPS
Bits/(Pixel*Frame)          : 0.161
Stream size                 : 1.29 GiB (91%)

Audio
ID                          : 1
Format                      : MPEG Audio
Format version              : Version 1
Format profile              : Layer 3
Mode                        : Joint stereo
Mode extension              : MS Stereo
Codec ID                    : 55
Codec ID/Hint               : MP3
Duration                    : 2 h 4 min
Bit rate mode               : Constant
Bit rate                    : 128 kb/s
Channel(s)                  : 2 channels
Sampling rate               : 44.1 kHz
Compression mode            : Lossy
Stream size                 : 114 MiB (8%)
Alignment                   : Aligned on interleaves
Interleave, duration        : 26  ms (0.78 video frame)
Interleave, preload duratio : 522  ms
Writing library             : LAME3.98 (beta)
Скриншоты:


Время раздачи: с 07.00 до 23.00 (до появления первых 3-5 скачавших)
У вас нет необходимых прав для просмотра вложений в этом сообщении.

TOPIC_VIEWER - Лучшая благодарность поделиться ссылкой с друзьями в соц. сетях