Сообщение

Michael Skogg | Virtual Skogg: Kettlebell Classes 01 - 40 (2016) DVDRip [H.264/720p] [EN]

Сообщение Nik » 27 авг 2017, 14:07

Michael Skogg | Virtual Skogg: Kettlebell Classes 01 - 40 (2016) DVDRip [H.264/720p] [EN]

Автор (режиссер): Michael Skogg
Производство: США
Жанр: гиревой спорт

Описание:
Майкл является всемирно известным тренером по гиревому спорту, педагогом и автором. Его долгая история работы с гирями, понимание того, как работает тело и уникальные тренировки, которые он создал сделали его безусловным победителем в гиревом обучении.

Продолжительность: 25:44:00
Качество видео: DVDRip
Перевод: Отсутствует
Язык озвучки: Английский

Видео: AVC/H.264, 1280x720, ~1 419 Kbps
Аудио: AAC, 2 ch, 160 Kbps, VBR
Код:
Код: Выделить всё
00 Intro Class.mp4
Format                      : MPEG-4
Format profile              : Base Media / Version 2
Codec ID                    : mp42 (isom/iso2/avc1/mp41)
File size                   : 425 MiB
Duration                    : 37 min
Overall bit rate mode       : Variable
Overall bit rate            : 1 586 kb/s
Encoded date                : UTC 2016-06-15 17:34:01
Tagged date                 : UTC 2016-06-15 17:34:01
Writing application         : HandBrake 0.10.5 2016021100

Video
ID                          : 1
Format                      : AVC
Format/Info                 : Advanced Video Codec
Format profile              : Main@L4
Format settings, CABAC      : Yes
Format settings, ReFrames   : 4 frames
Codec ID                    : avc1
Codec ID/Info               : Advanced Video Coding
Duration                    : 37 min
Bit rate                    : 1 419 kb/s
Width                       : 1 280 pixels
Height                      : 720 pixels
Display aspect ratio        : 16:9
Frame rate mode             : Variable
Frame rate                  : 23.976 (23976/1000) FPS
Minimum frame rate          : 12.048 FPS
Maximum frame rate          : 24.390 FPS
Color space                 : YUV
Chroma subsampling          : 4:2:0
Bit depth                   : 8 bits
Scan type                   : Progressive
Bits/(Pixel*Frame)          : 0.064
Stream size                 : 381 MiB (89%)
Writing library             : x264 core 142 r2479 dd79a61
Encoding settings           : cabac=1 / ref=1 / deblock=1:0:0 / analyse=0x1:0x111 / me=hex / subme=2 / psy=1 / psy_rd=1.00:0.00 / mixed_ref=0 / me_range=16 / chroma_me=1 / trellis=0 / 8x8dct=0 / cqm=0 / deadzone=21,11 / fast_pskip=1 / chroma_qp_offset=0 / threads=12 / lookahead_threads=4 / sliced_threads=0 / nr=0 / decimate=1 / interlaced=0 / bluray_compat=0 / constrained_intra=0 / bframes=3 / b_pyramid=2 / b_adapt=1 / b_bias=0 / direct=1 / weightb=1 / open_gop=0 / weightp=1 / keyint=240 / keyint_min=24 / scenecut=40 / intra_refresh=0 / rc_lookahead=10 / rc=2pass / mbtree=1 / bitrate=1419 / ratetol=1.0 / qcomp=0.60 / qpmin=0 / qpmax=69 / qpstep=4 / cplxblur=20.0 / qblur=0.5 / vbv_maxrate=20000 / vbv_bufsize=25000 / nal_hrd=none / filler=0 / ip_ratio=1.40 / aq=1:1.00
Encoded date                : UTC 2016-06-15 17:34:01
Tagged date                 : UTC 2016-06-15 17:34:01
Color range                 : Limited
Color primaries             : BT.709
Transfer characteristics    : BT.709
Matrix coefficients         : BT.709

Audio
ID                          : 2
Format                      : AAC
Format/Info                 : Advanced Audio Codec
Format profile              : LC
Codec ID                    : 40
Duration                    : 37 min
Bit rate mode               : Variable
Bit rate                    : 160 kb/s
Channel(s)                  : 2 channels
Channel positions           : Front: L R
Sampling rate               : 48.0 kHz
Frame rate                  : 46.875 FPS (1024 spf)
Compression mode            : Lossy
Stream size                 : 42.9 MiB (10%)
Title                       : Stereo / Stereo
Language                    : English
Default                     : Yes
Alternate group             : 1
Encoded date                : UTC 2016-06-15 17:34:01
Tagged date                 : UTC 2016-06-15 17:34:01
Kettlebell Classes 01 - 20: 20 тренировок + введение (intro)
Kettlebell Classes 21 - 40: 20 тренировок

Скриншоты:


Спасибо за видеоматериал jagdeep

Время раздачи: с 07.00 до 22.00 (до появления первых 3-5 скачавших)

DotBot - Лучшая благодарность поделиться ссылкой с друзьями в соц. сетях

Постеры

Соцсети

 

Статистика

Автор: Nik
Добавлен: 27 авг 2017, 14:07
Размер: 17.28 ГБ
Размер: 18 554 374 808 байт
Сидеров: 0
Личеров: 2
Скачали: 0
Здоровье: ???%
Статус:
Скорость скачивания: 0 байт/сек
Скорость раздачи: 0 байт/сек
Последний сидер: 11 месяцев 28 дней 1 час 47 минут 23 секунды назад
Последний личер: 11 месяцев 28 дней 2 часа 3 минуты 47 секунд назад
Приватный: Нет (DHT включён)
Здоровье и спорт Скачать торрент
Скачать торрент
[ Размер 91.19 КБ / Просмотров 2 ]

Поделиться



  • Похожие торренты
    Ответы
    Просмотры
    Последнее сообщение

Вернуться в Здоровье и спорт