Сообщение

Bob Harper | Inside Out Method - Kettlebell Cardio Shred (2010) DVDRip [EN]

Сообщение Nik » 27 авг 2017, 14:08

Bob Harper | Inside Out Method - Kettlebell Cardio Shred (2010) DVDRip [EN]

Автор (режиссер): Bob Harper
Производство: США
Жанр: Фитнес

Описание:
Время измениться!
Более 50 минут нон-стоп кардио-силовой тренировки с гирей под руководством Боба Харпера - для сжигания калорий, "расплавления" жира и построения мышечной структуры.
Требуются гири - 2,5 - 9 кг.

Продолжительность: 00:54:00
Качество видео: DVDRip
Перевод: Отсутствует
Язык озвучки: Английский

Видео: Xvid, 720x400, ~1316 Kbps
Аудио: MP3, 2 ch, 128 Kbps, CBR
Код:
Код: Выделить всё
Bob Harper Inside Out Method - Kettlebell Cardio Shred.avi
Format                      : AVI
Format/Info                 : Audio Video Interleave
File size                   : 565 MiB
Duration                    : 54 min
Overall bit rate            : 1 453 kb/s
Movie name                  : Bob Harper Kettlebell Cardio Shred
Writing application         : VirtualDubMod 1.5.10.2 (build 2540/release)
Copyright                   : Olu6ka

Video
ID                          : 0
Format                      : MPEG-4 Visual
Format profile              : Advanced Simple@L5
Format settings, BVOP       : 1
Format settings, QPel       : No
Format settings, GMC        : No warppoints
Format settings, Matrix     : Custom
Codec ID                    : XVID
Codec ID/Hint               : XviD
Duration                    : 54 min
Bit rate                    : 1 316 kb/s
Width                       : 720 pixels
Height                      : 400 pixels
Display aspect ratio        : 16:9
Frame rate                  : 23.976 (23976/1000) FPS
Color space                 : YUV
Chroma subsampling          : 4:2:0
Bit depth                   : 8 bits
Scan type                   : Progressive
Compression mode            : Lossy
Bits/(Pixel*Frame)          : 0.191
Stream size                 : 512 MiB (91%)
Writing library             : XviD 1.2.1 (UTC 2008-12-04)

Audio
ID                          : 1
Format                      : MPEG Audio
Format version              : Version 1
Format profile              : Layer 3
Mode                        : Joint stereo
Mode extension              : MS Stereo
Codec ID                    : 55
Codec ID/Hint               : MP3
Duration                    : 54 min
Bit rate mode               : Constant
Bit rate                    : 128 kb/s
Channel(s)                  : 2 channels
Sampling rate               : 48.0 kHz
Compression mode            : Lossy
Stream size                 : 49.8 MiB (9%)
Alignment                   : Split accross interleaves
Interleave, duration        : 42  ms (1.00 video frame)
Interleave, preload duratio : 500  ms
Writing library             : LAME3.98.2

Скриншоты:


Спасибо за видеоматериал и описание Olu6ka

Время раздачи: с 07.00 до 22.00 (до появления первых 3-5 скачавших)

CCBot - Лучшая благодарность поделиться ссылкой с друзьями в соц. сетях

Постеры

Соцсети

 

Статистика

Автор: Nik
Добавлен: 27 авг 2017, 14:08
Размер: 565.02 МБ
Размер: 592 470 016 байт
Сидеров: 2
Личеров: 0
Скачали: 0
Здоровье: 100%
Раздающих: 100%
Статус:
Скорость скачивания: 0 байт/сек
Скорость раздачи: 0 байт/сек
Последний сидер: 10 дней 6 часов 24 минуты 8 секунд назад
Последний личер: Нет
Приватный: Нет (DHT включён)
Здоровье и спорт Скачать торрент
Скачать торрент
[ Размер 11.96 КБ / Просмотров 6 ]

Поделиться



  • Похожие торренты
    Ответы
    Просмотры
    Последнее сообщение

Вернуться в Здоровье и спорт