Сообщение

Zuzka Light | ZCUT Power Strength Series (2013) DVDRip [H.264] [EN]

Сообщение Nik » 27 авг 2017, 14:08

Zuzka Light | ZCUT Power Strength Series (2013) DVDRip [H.264] [EN]

Автор (режиссер): Zuzka Light
Производство: США
Жанр: Фитнес

Описание:
ZCUT Power Strength Series это 12 новых высокоинтенсивных жиросжигающих тренировок.

Эти тренировки являются динамически структурированными, чтобы обеспечить функциональную силу, сделать сухопарое телосложение. В комплекте идут 30, 60 и 90-дневные календари.

Продолжительность: 03:18:03
Качество видео: DVDRip
Перевод: Отсутствует
Язык озвучки: Английский

Видео: AVC/H.264, 640x368, ~1000 Kbps
Аудио: AAC, 2 ch, 96 Kbps, VBR
Код:
Код: Выделить всё
ZCUT Power Strength Series\Workout 01.mp4
Format                      : MPEG-4
Format profile              : Base Media / Version 2
Codec ID                    : mp42 (mp42/isom)
File size                   : 100.0 MiB
Duration                    : 12 min
Overall bit rate mode       : Variable
Overall bit rate            : 1 125 kb/s

Video
ID                          : 1
Format                      : AVC
Format/Info                 : Advanced Video Codec
Format profile              : Main@L4
Format settings, CABAC      : Yes
Format settings, ReFrames   : 4 frames
Codec ID                    : avc1
Codec ID/Info               : Advanced Video Coding
Duration                    : 12 min
Bit rate                    : 1 000 kb/s
Width                       : 640 pixels
Height                      : 368 pixels
Display aspect ratio        : 1.739
Frame rate mode             : Variable
Frame rate                  : 23.976 FPS
Minimum frame rate          : 19.982 FPS
Maximum frame rate          : 29.990 FPS
Color space                 : YUV
Chroma subsampling          : 4:2:0
Bit depth                   : 8 bits
Scan type                   : Progressive
Bits/(Pixel*Frame)          : 0.177
Stream size                 : 90.8 MiB (91%)
Writing library             : x264 core 130 r2273 b3065e6
Encoding settings           : cabac=1 / ref=1 / deblock=1:0:0 / analyse=0x1:0x111 / me=hex / subme=2 / psy=1 / psy_rd=1.00:0.00 / mixed_ref=0 / me_range=16 / chroma_me=1 / trellis=0 / 8x8dct=0 / cqm=0 / deadzone=21,11 / fast_pskip=1 / chroma_qp_offset=0 / threads=3 / lookahead_threads=1 / sliced_threads=0 / nr=0 / decimate=1 / interlaced=0 / bluray_compat=0 / constrained_intra=0 / bframes=3 / b_pyramid=2 / b_adapt=1 / b_bias=0 / direct=1 / weightb=1 / open_gop=0 / weightp=1 / keyint=240 / keyint_min=24 / scenecut=40 / intra_refresh=0 / rc_lookahead=10 / rc=2pass / mbtree=1 / bitrate=1000 / ratetol=1.0 / qcomp=0.60 / qpmin=0 / qpmax=69 / qpstep=4 / cplxblur=20.0 / qblur=0.5 / vbv_maxrate=20000 / vbv_bufsize=25000 / nal_hrd=none / ip_ratio=1.40 / aq=1:1.00
Language                    : English
Color range                 : Limited
Color primaries             : BT.601 NTSC
Transfer characteristics    : BT.709
Matrix coefficients         : BT.601
mdhd_Duration               : 745251

Audio
ID                          : 2
Format                      : AAC
Format/Info                 : Advanced Audio Codec
Format profile              : LC
Codec ID                    : 40
Duration                    : 12 min
Bit rate mode               : Variable
Bit rate                    : 96.0 kb/s
Channel(s)                  : 2 channels
Channel positions           : Front: L R
Sampling rate               : 48.0 kHz
Frame rate                  : 46.875 FPS (1024 spf)
Compression mode            : Lossy
Stream size                 : 8.53 MiB (9%)
Language                    : English
12 тренировок + Bonus Workout, Warm Up, Cool Down.
Календарь тренировок (pdf).

Скриншоты:


Время раздачи: с 07.00 до 22.00 (до появления первых 3-5 скачавших)

YandexBot - Лучшая благодарность поделиться ссылкой с друзьями в соц. сетях

Постеры

Соцсети

 

Статистика

Автор: Nik
Добавлен: 27 авг 2017, 14:08
Размер: 1.56 ГБ
Размер: 1 671 833 785 байт
Сидеров: 0
Личеров: 0
Скачали: 0
Здоровье: 0%
Статус:
Скорость скачивания: 0 байт/сек
Скорость раздачи: 0 байт/сек
Последний сидер: 1 год 3 месяца 9 дней 2 часа 3 минуты 15 секунд назад
Последний личер: 1 год 3 месяца 9 дней 2 часа 49 минут 32 секунды назад
Приватный: Нет (DHT включён)
Здоровье и спорт Скачать торрент
Скачать торрент
[ Размер 17.08 КБ / Просмотров 4 ]

Поделиться



Вернуться в Здоровье и спорт